Loading...
Error

Скачать Демоны Да Винчи / Da Vinci's Demons (сезон 1-2, серия 1-18 из 18) (Майкл Дж. Бассетт, Дэвид С. Гойер, Джэми Пэйн[) [2013-2014, Драма, приключения, HDTVRip-AVC 1080p] [DD5.1] [MVO] [AlexFilm + Subs Rus,ENG ] торрент без регистрации

 
Статистика раздачи
Размер:  52,04 GB   |    Скачан:  267 раз
Сидов:  1  [  0 KB/s  ]  
 
Автор Сообщение

Nikolai.Baranov

[] 



Демоны Да Винчи / Da Vinci's Demons




Год выпуска: 2013-2014
Выпущено: США , BBC Worldwide Productions
Жанр: Драма, приключения
Продолжительность: 00:59:00
Сезон: 1-2
Серия: 1-18
Количество серий в сезоне: 18
Озвучка:Профессиональная многоголосая закадровая(AlexFilm)Евгения Тихонова, Михаил Суслов, Владимир Курдов, Константин Погодаев, Александр Дасевич
Субтитры: Русские, английские

Сайт сериала:



Режиссер: Майкл Дж. Бассетт, Дэвид С. Гойер, Джэми Пэйн

В ролях: Том Райли, Лаура Хэддок, Йен Пири, Эрос Влахос, Грегг Чиллин, Лара Пулвер, Том Бейтман, Гера Хилмарсдоттир, Эллиот Леви, Росс О’Хеннесси


В мире, где мысль и вера находятся под контролем, один человек борется за то, чтобы сделать знания доступными для всех. Не рассказанная история трагичной жизни Леонардо Да Винчи раскрывает портрет молодого человека, которого мучает дар гения. Он — еретик, жаждущий раскрыть ложь религии. Бунтарь, стремящийся низвергнуть элитарное общество. Незаконнорожденный сын, требующий от своего отца признания его прав. Он оказывается посреди разразившегося урагана страстей, который спал веками. Внутри конфликта между правдой и ложью, религией и интеллектом, прошлым и будущим. Его стремления используются против него противоборствующими силами того времени, вовлекая его в соблазнительную игру, в которой те, кто презирает его ум, нуждаются в нём больше всего. Леонардо должен вступить в конфронтацию с теми, кто использует историю, чтобы скрыть истину. Вооружённый лишь собственным гением Да Винчи в одиночку противостоит тьме как внутри, так и снаружи. Перед лицом неопределённости будущего его поход за знаниями едва не становится для него погибелью, когда он переходит за грань своего здравомыслия. Да Винчи, словно в омут с головой, уходит в собственные гениальные идеи, воплотив которые, становится необоримой силой, вытаскивающей из темноты и поворачивающей к свету целую эпоху. Его история становится зеркалом для нашего мира, зовущее всех нас на бой за Свободное Будущее.

Качество : HDTVRip-AVC 1080p
Формат: MPEG-4
Видео кодек: H264
Видео: 6483Кбит/сек,1920х1080(16.9),в 29.970кадр/сек,AVC(Baseline@L4.0)(1Ref Frames)
Аудио кодек: AAC
Аудио Russian Dolby Digital 5.1:463Кбит/сек,44.1КГц,6каналов,AAC,(Version4)(LC)


Звуковая дорожка сделана путем наложения чистого голоса озвучивателей на центральный канал оригинальной дорожки. Качество идентично звуковой дорожке.



01. Повешенный / The Hanged Man
02. Змей / The Serpent
03. Узник /The Prisoner
04. Маг / The Magician
05. Суд / The Tower
06. Дьявол / The Devil
07. Верховный жрец / The Hierophant
08. Любовники / The Lovers




01 Кровь человеческая / The Blood of Man
02 Братья по крови / The Blood of Brothers
03 Путешествие проклятых / The Voyage of the Damned
04 Край света / The Ends of the Earth
05. Солнце и Луна / The Sun and the Moon
06 Лиана мертвых / The Rope of the Dead
07 Небесный свод / The Vault of Heaven
08 Падение с небес / The Fall From Heaven
09 Враги человечества / The Enemies of Man
10 Грехи Дедала / The Sins of Daedalus



General
Полное имя : D:\И С Т О Р И Ч Е С К И Е\Демоны Да Винчи\Da_Vinci's_Demonsl_S01-S02_RUS[AlexFilm]_DD5.1_x264_Nikolai.Baranov_HDTVRip-AVC_(1080p)\S01\Da_Vinci's_Demons_2013_S01E01_RUS[AlexFilm]_DD5.1_x264_Nikolai.Baranov_HDTVRip-AVC_(1080p).mp4
Формат : MPEG-4
Профиль формата : Base Media
Идентификатор кодека : isom
Размер файла : 2.86 GiB
Продолжительность : 58mn 51s
Режим общего битрейта : Variable
Общий поток : 6 951 Kbps
Название фильма : NewStudio presents: Сонная Лощина 1С…9 Убежище
Дата кодирования : UTC 2014-03-26 14:56:30
Дата пометки : UTC 2014-03-26 14:56:30
Программа кодирования : Lavf51.12.1

Video
Идентификатор : 1
Формат : AVC
Формат/Информация : Advanced Video Codec
Профиль формата : Baseline@L4.0
Параметр CABAC формата : No
Параметр ReFrames формата : 1 frame
Параметр GOP формата : M=1, N=12
Идентификатор кодека : avc1
Идентификатор кодека/Информация : Advanced Video Coding
Продолжительность : 58mn 51s
Битрейт : 6 483 Kbps
Ширина : 1 920 pixels
Высота : 1 080 pixels
Соотношение сторон : 16:9
Режим частоты кадров : Constant
Частота кадров : 29.970 fps
Цветовое пространство : YUV
Субдискретизация насыщенности : 4:2:0
Битовая глубина : 8 bits
Тип развёртки : Progressive
Бит/(Пиксели*Кадры) : 0.104
Размер потока : 2.67 GiB (93%)
Дата кодирования : UTC 2014-03-26 14:56:30
Дата пометки : UTC 2014-03-26 14:56:30

Audio
Идентификатор : 2
Формат : AAC
Формат/Информация : Advanced Audio Codec
Профиль формата : LC
Идентификатор кодека : 40
Продолжительность : 58mn 51s
Вид битрейта : Variable
Битрейт : 463 Kbps
Каналы : 6 channels
Расположение каналов : Front: L C R, Side: L R, LFE
Частота : 48.0 KHz
Метод сжатия : Lossy
Размер потока : 195 MiB (7%)
Язык : Russian
Дата кодирования : UTC 2014-03-26 14:56:30
Дата пометки : UTC 2014-03-26 14:56:30



General
Полное имя : D:\И С Т О Р И Ч Е С К И Е\Демоны Да Винчи\Da_Vinci's_Demonsl_S01-S02_RUS[AlexFilm]_DD5.1_x264_Nikolai.Baranov_HDTVRip-AVC_(1080p)\S02\Da_Vinci's_Demons_2014_S02E01_RUS[AlexFilm]_DD5.1_x264_Nikolai.Baranov_HDTVRip-AVC_(1080p).mp4
Формат : MPEG-4
Профиль формата : Base Media
Идентификатор кодека : isom
Размер файла : 2.98 GiB
Продолжительность : 57mn 7s
Режим общего битрейта : Variable
Общий поток : 7 481 Kbps
Название фильма : NewStudio presents: Сонная Лощина 1С…9 Убежище
Дата кодирования : UTC 2014-03-28 12:14:45
Дата пометки : UTC 2014-03-28 12:14:45
Программа кодирования : Lavf51.12.1

Video
Идентификатор : 1
Формат : AVC
Формат/Информация : Advanced Video Codec
Профиль формата : Baseline@L4.0
Параметр CABAC формата : No
Параметр ReFrames формата : 1 frame
Параметр GOP формата : M=1, N=12
Идентификатор кодека : avc1
Идентификатор кодека/Информация : Advanced Video Coding
Продолжительность : 57mn 7s
Битрейт : 7 008 Kbps
Ширина : 1 920 pixels
Высота : 1 080 pixels
Соотношение сторон : 16:9
Режим частоты кадров : Constant
Частота кадров : 29.970 fps
Цветовое пространство : YUV
Субдискретизация насыщенности : 4:2:0
Битовая глубина : 8 bits
Тип развёртки : Progressive
Бит/(Пиксели*Кадры) : 0.113
Размер потока : 2.80 GiB (94%)
Дата кодирования : UTC 2014-03-28 12:14:45
Дата пометки : UTC 2014-03-28 12:14:45

Audio
Идентификатор : 2
Формат : AAC
Формат/Информация : Advanced Audio Codec
Профиль формата : LC
Идентификатор кодека : 40
Продолжительность : 57mn 7s
Вид битрейта : Variable
Битрейт : 468 Kbps
Каналы : 6 channels
Расположение каналов : Front: L C R, Side: L R, LFE
Частота : 48.0 KHz
Метод сжатия : Lossy
Размер потока : 191 MiB (6%)
Язык : Russian
Дата кодирования : UTC 2014-03-28 12:14:45
Дата пометки : UTC 2014-03-28 12:14:45






1 сезон

2 сезон


1. Открыть торрент
2. Снять галки с тех файлов торрента, которые мы не хотим закачивать. Оставляем только на нужных нам файлах (файле).
3. Нажать О.К.

В клиенте utorrent

Инструкция

1) Открыть торрент


2) Снять галки с тех файлов торрента, которые мы не хотим закачивать:

* либо вручную, снимая с каждого файла галку( скрин №1)
* либо, нажав кнопку "Снять метки (Select None)", сняв сразу со всех файлов(скрин №2)
№1

№2

Оставляем только на нужных нам файлах (файле).

3)Нажать О.К




Внимание!!! 05.06. 2014. РАЗДАЧА ОБНОВЛЕНА.ФИНАЛ СЕЗОНА.ОБНОВИТЕ ТОРЕНТ ФАЙЛ.ПРИЯТНОГО ПРОСМОТРА .

Релиз от: Nikolai.Baranov










Скачать Демоны.Да.Винчи.Da.Vinci's.Demons.(сезон.1-2.серия.1-18.из.18).(Майкл.Дж.Бассетт.Дэвид.С.Гойер.Джэми.Пэйн[).[2013-2014.Драма.приключения.HDTVRip-AVC.1080p].[DD5.1].[MVO].[AlexFilm.+.Subs.Rus.ENG.].torrent без регистрации
Золото ЗОЛОТАЯ РАЗДАЧА! СКАЧАННОЕ НЕ ЗАСЧИТЫВАЕТСЯ! Золото
Дата: Зарегистрирован   [ Тип: внутренний ] Как тут cкачать?
MAGNET ссылка
MAGNET ссылка


Скачать .torrent

136 KB

Статус: проверено DHT
Скачан: торрент - 267 раз, раздача полностью - 1 раз
Размер: 52,04 GB
Оценка:  5 (Голосов: 2)
Поблагодарили: 9
Поделиться ссылкой на эту раздачу с друзьями:
В контактеFacebookОдноклассникиTwitterLivejournalМой МирLiveinternet
 

 
Показать сообщения:    


Вы не можете начинать темы
Вы не можете отвечать на сообщения
Вы не можете редактировать свои сообщения
Вы не можете удалять свои сообщения
Вы не можете голосовать в опросах
Вы не можете прикреплять файлы к сообщениям
Вы можете скачивать файлы