Loading...
Error

Скачать Семейка Джонсов / The Joneses (2009) BDRip-AVC][Dub]+[Sub] торрент без регистрации

 
Статистика раздачи
Размер:  2,19 GB   |    Скачан:  121 раз
Сидов:  1  [  0 KB/s  ]  
 
Автор Сообщение

Marsianka

[] 

Год выпуска: 2009
Производство: США / Echo Lake Productions, Joneses, The, Premiere Picture
Жанр: Комедия, мелодрама, драма
Продолжительность: 01:51:31
Перевод: Профессиональный (полное дублирование)
Субтитры: Английские, русские
Режиссер: Деррик Борте / Derrick Borte

В ролях: Эмбер Хёрд, Деми Мур, Дэвид Духовны, Гэри Коул, Гленн Хедли, Бен Холлингсворт, Лорен Хаттон, Крис Уильямс, Соня Томпсон, Катрин Дайер

О фильме:
Образцово-показательная во всех отношениях семья Джонсов поселяется в маленьком городке, и сразу становится кумирами и любимчиками всех его жителей. Вот на кого хотят быть похожими все от мала до велика! Но на самом деле Джонсы - не супруги, и их дети - не настоящие. Нет, они не шпионы и не инопланетяне.
Все они - просто сотрудники маркетинговой компании, нанятые и засланные в городок, чтобы рекламировать нестандартными методами «идеальный» образ жизни, а заодно и миллион товаров! Но со временем Джонсы начинают обнаруживать, что их работенка не такая простая, как казалось, а горожане - что Джонсы не такие уж идеальные, и у каждого из них найдется какой-нибудь тайный порок...

Бюджет: $10 000 000

Качество: BDRip-AVC [BDRemux]
Формат: MKV
Видео: H.264, 1036x436 (2,37:1), 23,976 кадр/сек, 2370 Кбит/сек, 0.219 bit/pixel
Аудио#1: 48 kHz, AC3 Dolby Digital, 3/2 (L,C,R,l,r) + LFE ch, ~448.00 kbps avg | RUS
Аудио#2: 48 kHz, AC3 Dolby Digital, 3/2 (L,C,R,l,r) + LFE ch, ~448.00 kbps avg | ENG

Автор рипа:
Общее
Уникальный идентификатор : 249075431996869703482917817882249570535 (0xBB622EEC0DC8ABA1B2E96E99B0A4A8E7)
Полное имя : Semejka.Dzhonsov.2009.D.BDRip.x264.potroks.mkv
Формат : Matroska
Версия формата : Version 4 / Version 2
Размер файла : 2,19 Гбайт
Продолжительность : 1 ч. 35 м.
Общий поток : 3263 Кбит/сек
Название фильма : -=POTROKS=-
Дата кодирования : UTC 2013-04-30 15:01:35
Программа кодирования : mkvmerge v5.9.0 ('On The Loose') built on Dec 15 2012 16:39:58
Библиотека кодирования : libebml v1.3.0 + libmatroska v1.4.0

Видео
Идентификатор : 1
Формат : AVC
Формат/Информация : Advanced Video Codec
Профиль формата : High@L4.1
Параметр CABAC формата : Да
Параметр ReFrames формата : 11 кадров
Идентификатор кодека : V_MPEG4/ISO/AVC
Продолжительность : 1 ч. 35 м.
Битрейт : 2370 Кбит/сек
Ширина : 1036 пикселей
Высота : 436 пикселей
Соотношение сторон : 2,40:1
Режим частоты кадров : Постоянный
Частота кадров : 23,976 кадра/сек
Цветовое пространство : YUV
Субдискретизация насыщенности : 4:2:0
Битовая глубина : 8 бит
Тип развёртки : Прогрессивная
Бит/(Пиксели*Кадры) : 0.219
Размер потока : 1,54 Гбайт (71%)
Заголовок : The Joneses
Библиотека кодирования : x264 core 125 r2208 d9d2288
Настройки программы : cabac=1 / ref=11 / deblock=1:-2:-1 / analyse=0x3:0x133 / me=umh / subme=11 / psy=1 / psy_rd=1.07:0.00 / mixed_ref=1 / me_range=32 / chroma_me=1 / trellis=2 / 8x8dct=1 / cqm=0 / deadzone=21,11 / fast_pskip=0 / chroma_qp_offset=-2 / threads=9 / lookahead_threads=1 / sliced_threads=0 / nr=0 / decimate=1 / interlaced=0 / bluray_compat=0 / constrained_intra=0 / bframes=12 / b_pyramid=2 / b_adapt=2 / b_bias=0 / direct=3 / weightb=1 / open_gop=0 / weightp=2 / keyint=240 / keyint_min=23 / scenecut=40 / intra_refresh=0 / rc_lookahead=150 / rc=2pass / mbtree=1 / bitrate=2370 / ratetol=1.0 / qcomp=0.70 / qpmin=0 / qpmax=69 / qpstep=4 / cplxblur=20.0 / qblur=0.5 / vbv_maxrate=20000 / vbv_bufsize=25000 / nal_hrd=none / ip_ratio=1.35 / aq=1:0.70
Язык : English
Default : Да
Forced : Нет

Аудио #1
Идентификатор : 2
Формат : AC-3
Формат/Информация : Audio Coding 3
Расширение режима : CM (complete main)
Параметр Endianness формата : Big
Идентификатор кодека : A_AC3
Продолжительность : 1 ч. 35 м.
Вид битрейта : Постоянный
Битрейт : 448 Кбит/сек
Каналы : 6 каналов
Расположение каналов : Front: L C R, Side: L R, LFE
Частота : 48,0 КГц
Битовая глубина : 16 бит
Метод сжатия : С потерями
Размер потока : 307 Мбайт (14%)
Заголовок : Dub | DD 5.1 @ 448 kbps
Язык : Russian
Default : Да
Forced : Да

Аудио #2
Идентификатор : 3
Формат : AC-3
Формат/Информация : Audio Coding 3
Расширение режима : CM (complete main)
Параметр Endianness формата : Big
Идентификатор кодека : A_AC3
Продолжительность : 1 ч. 35 м.
Вид битрейта : Постоянный
Битрейт : 448 Кбит/сек
Каналы : 6 каналов
Расположение каналов : Front: L C R, Side: L R, LFE
Частота : 48,0 КГц
Битовая глубина : 16 бит
Метод сжатия : С потерями
Размер потока : 307 Мбайт (14%)
Заголовок : Original | DD 5.1 @ 448 kbps
Язык : English
Default : Нет
Forced : Нет

Текст #1
Идентификатор : 4
Формат : UTF-8
Идентификатор кодека : S_TEXT/UTF8
Идентификатор кодека/Информация : UTF-8 Plain Text
Язык : Russian
Default : Нет
Forced : Нет

Текст #2
Идентификатор : 5
Формат : UTF-8
Идентификатор кодека : S_TEXT/UTF8
Идентификатор кодека/Информация : UTF-8 Plain Text
Язык : English
Default : Нет
Forced : Нет

avs [info]: 1036x436p 1:1 @ 2500000/104271 fps (cfr)
x264 [info]: using SAR=1/1
x264 [info]: using cpu capabilities: MMX2 SSE2Fast SSSE3 FastShuffle SSE4.2 AVX XOP FMA4 SSEMisalign LZCNT
x264 [info]: profile High, level 4.1

x264 [info]: frame I:1164 Avg QP:17.37 size: 61287
x264 [info]: frame P:29083 Avg QP:18.84 size: 24367
x264 [info]: frame B:107634 Avg QP:21.63 size: 8565
x264 [info]: consecutive B-frames: 1.5% 2.9% 6.8% 19.1% 20.0% 40.3% 4.9% 2.0% 0.7% 0.4% 0.3% 0.6% 0.4%
x264 [info]: mb I I16..4: 12.4% 66.3% 21.4%
x264 [info]: mb P I16..4: 1.0% 7.9% 2.1% P16..4: 30.0% 34.5% 13.0% 2.6% 0.3% skip: 8.6%
x264 [info]: mb B I16..4: 0.1% 1.4% 0.4% B16..8: 36.8% 18.3% 3.0% direct: 5.1% skip:35.0% L0:41.9% L1:45.7% BI:12.4%
x264 [info]: 8x8 transform intra:71.2% inter:59.3%
x264 [info]: direct mvs spatial:98.7% temporal:1.3%
x264 [info]: coded y,uvDC,uvAC intra: 82.5% 79.4% 48.2% inter: 25.1% 15.6% 1.6%
x264 [info]: i16 v,h,dc,p: 46% 12% 5% 36%
x264 [info]: i8 v,h,dc,ddl,ddr,vr,hd,vl,hu: 12% 7% 8% 10% 13% 14% 13% 12% 12%
x264 [info]: i4 v,h,dc,ddl,ddr,vr,hd,vl,hu: 37% 6% 5% 7% 10% 10% 9% 8% 8%
x264 [info]: i8c dc,h,v,p: 33% 26% 23% 18%
x264 [info]: Weighted P-Frames: Y:2.4% UV:1.0%
x264 [info]: ref P L0: 46.7% 10.5% 18.1% 6.3% 5.2% 3.7% 3.3% 1.7% 1.6% 1.4% 1.4% 0.2% 0.0%
x264 [info]: ref B L0: 77.8% 10.2% 4.6% 2.3% 1.6% 1.3% 1.0% 0.6% 0.4% 0.2%
x264 [info]: ref B L1: 93.5% 6.5%
x264 [info]: kb/s:2367.50

x264 [total]: encoded 137881 frames, 7.62 fps, 2367.50 kb/s



Скачать Семейка.Джонсов.The.Joneses.(2009).BDRip-AVC][Dub]+[Sub].torrent без регистрации
Золото ЗОЛОТАЯ РАЗДАЧА! СКАЧАННОЕ НЕ ЗАСЧИТЫВАЕТСЯ! Золото
Дата: Зарегистрирован   [ Тип: внутренний ] Как тут cкачать?
MAGNET ссылка
MAGNET ссылка


Скачать .torrent

11 KB

Статус: проверено DHT
Скачан: торрент - 121 раз, раздача полностью - 40 раз
Размер: 2,19 GB
Оценка:  - (Голосов: 0)
Поблагодарили: 1
Поделиться ссылкой на эту раздачу с друзьями:
В контактеFacebookОдноклассникиTwitterLivejournalМой МирLiveinternet
 

 
Показать сообщения:    


Вы не можете начинать темы
Вы не можете отвечать на сообщения
Вы не можете редактировать свои сообщения
Вы не можете удалять свои сообщения
Вы не можете голосовать в опросах
Вы не можете прикреплять файлы к сообщениям
Вы можете скачивать файлы