Loading...
Error

Скачать Нью-Джек-Сити / New Jack City (Марио Ван Пиблз) [1991, триллер, криминал, драма, BDRip-AVC] [MVO]+[Sub] торрент без регистрации

 
Статистика раздачи
Размер:  2,63 GB   |    Скачан:  97 раз
Сидов:  1  [  0 KB/s  ]  
 
Автор Сообщение

Marsianka

[] 

Информация о фильме
Название: Нью-Джек-Сити
Оригинальное название: New Jack City
Год выхода: 1991
Жанр: триллер, криминал, драма
Режиссер: Марио Ван Пиблз
В ролях: Уэсли Снайпс, Айс-Ти, Аллен Пэйн, Крис Рок, Марио Ван Пиблз, Майкл Мишель, Билл Нанн, Расселл Вонг, Билл Коббс, Кристофер Уильямс, Джадд Нельсон, Ванесса Уильямс, Трэйси Камилла Джонс, Энтони ДеСандо, Ник Эшфорд, Филлис Ивонн Стикни, Талмус Расулала, Джон Эпри, Фэб Файв Фредди, Флэйвор Флэв, Клеберт Форд, Лаверн Харт, Грегг Смрз

О фильме:
Нино Браун удачлив в делах и в жизни. Он молод, богат, красив и подает большие надежды. Однако, настоящее его занятие это торговля наркотиками, здесь его «золотое дно» во всех смыслах. Нино влиятелен и жесток в своем деле, он считает себя неуязвимым. Тем более, что мало кто противостоит ему, разве только всего лишь какие-то заурядные парни, полицейские Гангстерский босс недооценил своих врагов



Страна: США
Студия: Jackson/McHenry Films, Jacmac Films, Warner Bros. Pictures
Продолжительность: 01:40:29
Перевод: Профессиональный (многоголосый закадровый)

Файл
Кодек: h.264
Качество: BDRip-AVC
Видео: 3114 Кбит/с, 1024x576, 23.976 кадр/с

Звук: Русский (AC3, 2 ch, 192 Кбит/с), английский (AC3, 6 ch, 448 Кбит/с)

Субтитры: Английские

Полное имя : New-Jack-City.1991.x264.BDRip.(AVC).0ptimus.mkv
Формат : Matroska
Версия формата : Version 4 / Version 2
Размер файла : 2,63 Гбайт
Продолжительность : 1 ч. 40 м.
Общий поток : 3752 Кбит/сек
Название фильма : Нью-Джек-Сити | New Jack City [1991] -=BDRip (AVC) by 0ptimus=-
Дата кодирования : UTC 2013-04-30 14:14:01
Программа кодирования : mkvmerge v6.1.0 ('Old Devil') built on Mar 2 2013 14:32:37
Библиотека кодирования : libebml v1.3.0 + libmatroska v1.4.0

Видео
Идентификатор : 1
Формат : AVC
Формат/Информация : Advanced Video Codec
Профиль формата : High@L4.1
Параметр CABAC формата : Да
Параметр ReFrames формата : 9 кадров
Идентификатор кодека : V_MPEG4/ISO/AVC
Продолжительность : 1 ч. 40 м.
Битрейт : 3114 Кбит/сек
Ширина : 1024 пикселя
Высота : 576 пикселей
Соотношение сторон : 16:9
Частота кадров : 23,976 кадра/сек
Цветовое пространство : YUV
Субдискретизация насыщенности : 4:2:0
Битовая глубина : 8 бит
Тип развёртки : Прогрессивная
Бит/(Пиксели*Кадры) : 0.220
Размер потока : 2,13 Гбайт (81%)
Заголовок : Rip by 0ptimus
Библиотека кодирования : x264 core 130 r2273 b3065e6
Настройки программы : cabac=1 / ref=9 / deblock=1:-3:-3 / analyse=0x3:0x113 / me=umh / subme=11 / psy=1 / psy_rd=1.00:0.20 / mixed_ref=1 / me_range=32 / chroma_me=1 / trellis=2 / 8x8dct=1 / cqm=0 / deadzone=21,11 / fast_pskip=0 / chroma_qp_offset=-3 / threads=3 / lookahead_threads=1 / sliced_threads=0 / nr=0 / decimate=0 / interlaced=0 / bluray_compat=0 / constrained_intra=0 / bframes=7 / b_pyramid=2 / b_adapt=2 / b_bias=0 / direct=3 / weightb=1 / open_gop=0 / weightp=2 / keyint=240 / keyint_min=23 / scenecut=40 / intra_refresh=0 / rc_lookahead=40 / rc=2pass / mbtree=0 / bitrate=3114 / ratetol=1.0 / qcomp=0.60 / qpmin=0 / qpmax=69 / qpstep=4 / cplxblur=20.0 / qblur=0.5 / vbv_maxrate=50000 / vbv_bufsize=50000 / nal_hrd=none / ip_ratio=1.40 / pb_ratio=1.30 / aq=1:1.00
Язык : English

Аудио #1
Идентификатор : 2
Формат : AC-3
Формат/Информация : Audio Coding 3
Расширение режима : CM (complete main)
Идентификатор кодека : A_AC3
Продолжительность : 1 ч. 40 м.
Вид битрейта : Постоянный
Битрейт : 192 Кбит/сек
Каналы : 2 канала
Расположение каналов : Front: L R
Частота : 48,0 КГц
Битовая глубина : 16 бит
Метод сжатия : С потерями
Размер потока : 138 Мбайт (5%)
Заголовок : Многоголосый закадровый
Язык : Russian

Аудио #2
Идентификатор : 3
Формат : AC-3
Формат/Информация : Audio Coding 3
Расширение режима : CM (complete main)
Идентификатор кодека : A_AC3
Продолжительность : 1 ч. 40 м.
Вид битрейта : Постоянный
Битрейт : 448 Кбит/сек
Каналы : 6 каналов
Расположение каналов : Front: L C R, Side: L R, LFE
Частота : 48,0 КГц
Битовая глубина : 16 бит
Метод сжатия : С потерями
Размер потока : 322 Мбайт (12%)
Язык : English

Текст
Идентификатор : 4
Формат : UTF-8
Идентификатор кодека : S_TEXT/UTF8
Идентификатор кодека/Информация : UTF-8 Plain Text
Язык : English

Меню
00:00:00.000 : :Credits (Living for the City)
00:02:36.114 : :Debtor's Fall
00:03:10.941 : :Scotty Collars Pookie
00:07:10.430 : :Like Themob
00:10:14.531 : :Getting Rich in the Reagan Era
00:14:29.243 : :An Empire
00:18:02.331 : :New Jack Cops
00:20:41.115 : :Teammates
00:22:48.534 : :Frankie Needles Visits
00:25:30.696 : :An Interest in Pookie
00:29:09.581 : :Road to Recovery
00:31:57.541 : :Nino's Operation
00:34:04.125 : :New American Dream
00:35:53.151 : :Frankie Scalped
00:37:38.548 : :Party Hearty
00:39:47.635 : :Nino's World
00:43:15.927 : :On the Inside
00:48:22.024 : :The Powderkeg Explodes
00:53:46.014 : :Pointed Anger
00:58:29.506 : :In This Together
01:01:53.293 : :About to Itch
01:03:51.953 : :Always Business
01:07:37.845 : :Saying the Idolator
01:10:48.327 : :Wedding Day Burglary
01:13:16.475 : :Party Crashers
01:15:33.988 : :Retaliation
01:16:56.445 : :Set-Up Gone Sour
01:22:31.155 : :Bullet for a Brother
01:26:25.222 : :Nino's Stronghold
01:28:03.695 : :"It's Personal"
01:30:09.487 : :Forced Into It
01:32:48.271 : :How the Law Works
01:34:38.923 : :Required in Hell
01:35:29.724 : :Coda and End Credits
01:40:28.814 : :End

---------------------------------------------------------------------------
x264 [info]: frame I:1103 Avg QP:17.96 size: 77033
x264 [info]: frame P:32891 Avg QP:20.89 size: 30003
x264 [info]: frame B:110559 Avg QP:22.55 size: 11507
---------------------------------------------------------------------------
Релиз от:



Скачать Нью-Джек-Сити.New.Jack.City.(Марио.Ван.Пиблз).[1991.триллер.криминал.драма.BDRip-AVC].[MVO]+[Sub].torrent без регистрации
Золото ЗОЛОТАЯ РАЗДАЧА! СКАЧАННОЕ НЕ ЗАСЧИТЫВАЕТСЯ! Золото
Дата: Зарегистрирован   [ Тип: внутренний ] Как тут cкачать?
MAGNET ссылка
MAGNET ссылка


Скачать .torrent

14 KB

Статус: проверено DHT
Скачан: торрент - 97 раз, раздача полностью - 0 раз
Размер: 2,63 GB
Оценка:  - (Голосов: 0)
Поблагодарили: 1
Поделиться ссылкой на эту раздачу с друзьями:
В контактеFacebookОдноклассникиTwitterLivejournalМой МирLiveinternet
 

 
Показать сообщения:    


Вы не можете начинать темы
Вы не можете отвечать на сообщения
Вы не можете редактировать свои сообщения
Вы не можете удалять свои сообщения
Вы не можете голосовать в опросах
Вы не можете прикреплять файлы к сообщениям
Вы можете скачивать файлы