Loading...
Error

Скачать Коммандос / Commando (Марк Л. Лестер) [1985, боевик, триллер, приключения, BDRip-AVC] [Dub]+[MVO]x4+[DVO]+[AVO]x5+[Sub] торрент без регистрации

 
Статистика раздачи
Размер:  4,06 GB   |    Скачан:  151 раз
Сидов:  1  [  0 KB/s  ]  
 
Автор Сообщение

Marsianka

[] 

Информация о фильме
Название: Коммандос
Оригинальное название: Commando
Год выхода: 1985
Жанр: боевик, триллер, приключения
Режиссер: Марк Л. Лестер
В ролях: Арнольд Шварценеггер, Рей Дон Чон, Дэн Хедайя, Вернон Уэллс, Джеймс Олсон, Дэвид Патрик Келли, Алисса Милано, Билл Дьюк, Дрю Снайдер, Шарон Уайатт, Майкл Делано, Боб Майнор, Майкл Адамс, Гэри Сервантес, Ленни Джулиано, Чарльз Мешак, Челси Филд, Джули Хайек, Хэнк Калиа, Уолтер Скотт, Грег Уэйн Элам, Джордж Фишер, Фил Эдамс, Ава Каделл, Микул Робинс, Брэнском Ричмонд, Мэтт Лэндерс, Питер, Том Симмонс, Билл Пэкстон, Ричард Ройс, Джон Рейс, Билли Карденас, Эдвард Рейс, Вивиан Дэйли, Томас Розалес мл.

О фильме:
Полковник в отставке Джон Матрикс бывший командир спецотряда, участвовавшего в секретных операциях на Ближнем Востоке, СССР и Центральной Америке. Находясь в отличной физической форме и владея знаниями, которые делают его супер-солдатом, полковник в отставке Джон Матрикс живет под другим именем в большом доме со своей дочерью вдали от города. Но спокойную жизнь нарушает его старый враг, похищая 11-летнюю дочь полковника. И вспыхнувший ненавистью Джон Матрикс безжалостно убивает всех, кто становится у него на пути к спасению дочери



Страна: США
Студия: 20th Century Fox Film Corporation, Silver Pictures, SLM Production Group
Продолжительность: 01:30:16
Перевод: Дублированный, профессиональный (многоголосый закадровый), профессиональный (двухголосый закадровый), авторский (одноголосый закадровый)

Файл
Кодек: h.264
Качество: BDRip-AVC
Видео: 2782 Кбит/с, 1024x558, 23.976 кадр/с
1: Русский (AC3, 2 ch, 192 Кбит/с) Дублированный [Хлопушка], спасибо alex7691
2: Русский (AC3, 2 ch, 192 Кбит/с) Многоголосый закадровый [R5]
3: Русский (AC3, 6 ch, 384 Кбит/с) Авторский одноголосый [Андрей Гаврилов]
4: Английский (AC3, 6 ch, 384 Кбит/с)
Отдельно:
5: Русский (AC3, 6 ch, 384 Кбит/с) Многоголосый закадровый [Киномания]
6: Русский (AC3, 6 ch, 384 Кбит/с) Многоголосый закадровый [ОРТ]
7: Русский (AC3, 6 ch, 384 Кбит/с) Двухголосый закадровый [Петр Гланц и Инна Королева]
8: Русский (AC3, 6 ch, 384 Кбит/с) Авторский одноголосый [Дмитрий Пучков «Гоблин»]
9: Русский (AC3, 2 ch, 192 Кбит/с) Авторский одноголосый [Василий Горчаков]
10: Русский (AC3, 2 ch, 192 Кбит/с) Авторский одноголосый [Юрий Толбин]
11: Русский (AC3, 6 ch, 384 Кбит/с) Авторский одноголосый [Борис Федоров]
12: Украинский (AC3, 2 ch, 192 Кбит/с) Многоголосый закадровый [ICTV]

Субтитры:
1: Русские [R5]
2: Русские [Гоблин]
3: Английские

Полное имя : Kommandos.1985.x264.BDRip.(AVC).0ptimus.ALL.AUDIO.mkv
Формат : Matroska
Версия формата : Version 4 / Version 2
Размер файла : 4,06 Гбайт
Продолжительность : 1 ч. 30 м.
Общий поток : 6434 Кбит/сек
Название фильма : Коммандос | Commando [1985] -=BDRip (AVC) by 0ptimus=-
Дата кодирования : UTC 2013-04-30 15:08:33
Программа кодирования : mkvmerge v6.1.0 ('Old Devil') built on Mar 2 2013 14:32:37
Библиотека кодирования : libebml v1.3.0 + libmatroska v1.4.0

Видео
Идентификатор : 1
Формат : AVC
Формат/Информация : Advanced Video Codec
Профиль формата : High@L4.1
Параметр CABAC формата : Да
Параметр ReFrames формата : 10 кадров
Идентификатор кодека : V_MPEG4/ISO/AVC
Продолжительность : 1 ч. 30 м.
Битрейт : 2782 Кбит/сек
Ширина : 1024 пикселя
Высота : 558 пикселей
Соотношение сторон : 16:9
Частота кадров : 23,976 кадра/сек
Цветовое пространство : YUV
Субдискретизация насыщенности : 4:2:0
Битовая глубина : 8 бит
Тип развёртки : Прогрессивная
Бит/(Пиксели*Кадры) : 0.203
Размер потока : 1,68 Гбайт (41%)
Заголовок : Rip by 0ptimus
Библиотека кодирования : x264 core 130 r2273 b3065e6
Настройки программы : cabac=1 / ref=10 / deblock=1:-3:-3 / analyse=0x3:0x113 / me=umh / subme=11 / psy=1 / psy_rd=1.00:0.20 / mixed_ref=1 / me_range=32 / chroma_me=1 / trellis=2 / 8x8dct=1 / cqm=0 / deadzone=21,11 / fast_pskip=0 / chroma_qp_offset=-3 / threads=4 / lookahead_threads=1 / sliced_threads=0 / nr=0 / decimate=0 / interlaced=0 / bluray_compat=0 / constrained_intra=0 / bframes=8 / b_pyramid=2 / b_adapt=2 / b_bias=0 / direct=3 / weightb=1 / open_gop=0 / weightp=2 / keyint=240 / keyint_min=23 / scenecut=40 / intra_refresh=0 / rc_lookahead=40 / rc=2pass / mbtree=0 / bitrate=2782 / ratetol=1.0 / qcomp=0.60 / qpmin=0 / qpmax=69 / qpstep=4 / cplxblur=20.0 / qblur=0.5 / vbv_maxrate=50000 / vbv_bufsize=50000 / nal_hrd=none / ip_ratio=1.40 / pb_ratio=1.30 / aq=1:1.00
Язык : English

Аудио #1
Идентификатор : 2
Формат : AC-3
Формат/Информация : Audio Coding 3
Расширение режима : CM (complete main)
Идентификатор кодека : A_AC3
Продолжительность : 1 ч. 30 м.
Вид битрейта : Постоянный
Битрейт : 192 Кбит/сек
Каналы : 2 канала
Расположение каналов : Front: L R
Частота : 48,0 КГц
Битовая глубина : 16 бит
Метод сжатия : С потерями
Размер потока : 124 Мбайт (3%)
Заголовок : Дублированный [Хлопушка] AC3 2.0 @ 192 kbps
Язык : Russian

Аудио #2
Идентификатор : 3
Формат : AC-3
Формат/Информация : Audio Coding 3
Расширение режима : CM (complete main)
Идентификатор кодека : A_AC3
Продолжительность : 1 ч. 30 м.
Вид битрейта : Постоянный
Битрейт : 192 Кбит/сек
Каналы : 2 канала
Расположение каналов : Front: L R
Частота : 48,0 КГц
Битовая глубина : 16 бит
Метод сжатия : С потерями
Размер потока : 124 Мбайт (3%)
Заголовок : Многоголосый закадровый [R5] AC3 2.0 @ 192 kbps
Язык : Russian

Аудио #3
Идентификатор : 4
Формат : AC-3
Формат/Информация : Audio Coding 3
Расширение режима : CM (complete main)
Идентификатор кодека : A_AC3
Продолжительность : 1 ч. 30 м.
Вид битрейта : Постоянный
Битрейт : 384 Кбит/сек
Каналы : 6 каналов
Расположение каналов : Front: L C R, Side: L R, LFE
Частота : 48,0 КГц
Битовая глубина : 16 бит
Метод сжатия : С потерями
Размер потока : 248 Мбайт (6%)
Заголовок : Многоголосый закадровый [Киномания] AC3 5.1 @ 384 kbps
Язык : Russian

Аудио #4
Идентификатор : 5
Формат : AC-3
Формат/Информация : Audio Coding 3
Расширение режима : CM (complete main)
Идентификатор кодека : A_AC3
Продолжительность : 1 ч. 30 м.
Вид битрейта : Постоянный
Битрейт : 384 Кбит/сек
Каналы : 6 каналов
Расположение каналов : Front: L C R, Side: L R, LFE
Частота : 48,0 КГц
Битовая глубина : 16 бит
Метод сжатия : С потерями
Размер потока : 248 Мбайт (6%)
Заголовок : Многоголосый закадровый [OPT] AC3 5.1 @ 384 kbps
Язык : Russian

Аудио #5
Идентификатор : 6
Формат : AC-3
Формат/Информация : Audio Coding 3
Расширение режима : CM (complete main)
Идентификатор кодека : A_AC3
Продолжительность : 1 ч. 30 м.
Вид битрейта : Постоянный
Битрейт : 384 Кбит/сек
Каналы : 6 каналов
Расположение каналов : Front: L C R, Side: L R, LFE
Частота : 48,0 КГц
Битовая глубина : 16 бит
Метод сжатия : С потерями
Размер потока : 248 Мбайт (6%)
Заголовок : Двухголосый закадровый [Петр Гланц и Инна Королева] AC3 5.1 @ 384 kbps
Язык : Russian

Аудио #6
Идентификатор : 7
Формат : AC-3
Формат/Информация : Audio Coding 3
Расширение режима : CM (complete main)
Идентификатор кодека : A_AC3
Продолжительность : 1 ч. 30 м.
Вид битрейта : Постоянный
Битрейт : 384 Кбит/сек
Каналы : 6 каналов
Расположение каналов : Front: L C R, Side: L R, LFE
Частота : 48,0 КГц
Битовая глубина : 16 бит
Метод сжатия : С потерями
Размер потока : 248 Мбайт (6%)
Заголовок : Авторский [Андрей Гаврилов] AC3 5.1 @ 384 kbps
Язык : Russian

Аудио #7
Идентификатор : 8
Формат : AC-3
Формат/Информация : Audio Coding 3
Расширение режима : CM (complete main)
Идентификатор кодека : A_AC3
Продолжительность : 1 ч. 30 м.
Вид битрейта : Постоянный
Битрейт : 192 Кбит/сек
Каналы : 2 канала
Расположение каналов : Front: L R
Частота : 48,0 КГц
Битовая глубина : 16 бит
Метод сжатия : С потерями
Размер потока : 124 Мбайт (3%)
Заголовок : Авторский [Василий Горчаков] AC3 2.0 @ 192 kbps
Язык : Russian

Аудио #8
Идентификатор : 9
Формат : AC-3
Формат/Информация : Audio Coding 3
Расширение режима : CM (complete main)
Идентификатор кодека : A_AC3
Продолжительность : 1 ч. 30 м.
Вид битрейта : Постоянный
Битрейт : 384 Кбит/сек
Каналы : 6 каналов
Расположение каналов : Front: L C R, Side: L R, LFE
Частота : 48,0 КГц
Битовая глубина : 16 бит
Метод сжатия : С потерями
Размер потока : 248 Мбайт (6%)
Заголовок : Авторский [Дмитрий Пучков "Гоблин"] AC3 5.1 @ 384 kbps
Язык : Russian

Аудио #9
Идентификатор : 10
Формат : AC-3
Формат/Информация : Audio Coding 3
Расширение режима : CM (complete main)
Идентификатор кодека : A_AC3
Продолжительность : 1 ч. 30 м.
Вид битрейта : Постоянный
Битрейт : 384 Кбит/сек
Каналы : 6 каналов
Расположение каналов : Front: L C R, Side: L R, LFE
Частота : 48,0 КГц
Битовая глубина : 16 бит
Метод сжатия : С потерями
Размер потока : 248 Мбайт (6%)
Заголовок : Авторский [Борис Федоров] AC3 5.1 @ 384 kbps
Язык : Russian

Аудио #10
Идентификатор : 11
Формат : AC-3
Формат/Информация : Audio Coding 3
Расширение режима : CM (complete main)
Идентификатор кодека : A_AC3
Продолжительность : 1 ч. 30 м.
Вид битрейта : Постоянный
Битрейт : 192 Кбит/сек
Каналы : 2 канала
Расположение каналов : Front: L R
Частота : 48,0 КГц
Битовая глубина : 16 бит
Метод сжатия : С потерями
Размер потока : 124 Мбайт (3%)
Заголовок : Авторский [Юрий Толбин] AC3 2.0 @ 192 kbps
Язык : Russian

Аудио #11
Идентификатор : 12
Формат : AC-3
Формат/Информация : Audio Coding 3
Расширение режима : CM (complete main)
Идентификатор кодека : A_AC3
Продолжительность : 1 ч. 30 м.
Вид битрейта : Постоянный
Битрейт : 192 Кбит/сек
Каналы : 2 канала
Расположение каналов : Front: L R
Частота : 48,0 КГц
Битовая глубина : 16 бит
Метод сжатия : С потерями
Размер потока : 124 Мбайт (3%)
Заголовок : Многоголосый закадровый [ICTV] AC3 2.0 @ 192 kbps
Язык : Ukrainian

Аудио #12
Идентификатор : 13
Формат : AC-3
Формат/Информация : Audio Coding 3
Расширение режима : CM (complete main)
Идентификатор кодека : A_AC3
Продолжительность : 1 ч. 30 м.
Вид битрейта : Постоянный
Битрейт : 384 Кбит/сек
Каналы : 6 каналов
Расположение каналов : Front: L C R, Side: L R, LFE
Частота : 48,0 КГц
Битовая глубина : 16 бит
Метод сжатия : С потерями
Размер потока : 248 Мбайт (6%)
Заголовок : AC3 5.1 @ 384 kbps
Язык : English

Текст #1
Идентификатор : 14
Формат : UTF-8
Идентификатор кодека : S_TEXT/UTF8
Идентификатор кодека/Информация : UTF-8 Plain Text
Заголовок : R5
Язык : Russian

Текст #2
Идентификатор : 15
Формат : UTF-8
Идентификатор кодека : S_TEXT/UTF8
Идентификатор кодека/Информация : UTF-8 Plain Text
Заголовок : Гоблин
Язык : Russian

Текст #3
Идентификатор : 16
Формат : UTF-8
Идентификатор кодека : S_TEXT/UTF8
Идентификатор кодека/Информация : UTF-8 Plain Text
Язык : English

Меню
00:00:00.000 : en:Hit Men
00:04:14.836 : en:Main Titles
00:08:16.076 : en:Kirby Comes Calling
00:11:26.350 : en:Bushwhacked
00:16:35.701 : en:A Job For Matrix
00:19:16.778 : en:At the Airport
00:22:46.948 : en:Emergency Exit
00:26:42.267 : en:Tailing Sully
00:29:03.240 : en:Cindy's Car
00:32:14.766 : en:Panic at the Galleria
00:37:39.797 : en:Hot Pursuit
00:43:59.219 : en:Cooke
00:49:14.992 : en:Patria Enterprises
00:53:45.889 : en:Shopping Spree
00:56:32.347 : en:Jailbreak
00:59:14.509 : en:A Canoe With Wings
01:04:45.380 : en:Soft Landing
01:06:58.556 : en:Storming the Beach
01:10:21.966 : en:An Explosive Presence
01:12:52.618 : en:A Force of One
01:17:48.246 : en:Taking on Arius
01:19:48.198 : en:"Let's Party"
01:24:37.363 : en:A Better Offer
01:26:55.292 : en:End Titles
Релиз от:



Скачать Коммандос.Commando.(Марк.Л.Лестер).[1985.боевик.триллер.приключения.BDRip-AVC].[Dub]+[MVO]x4+[DVO]+[AVO]x5+[Sub].torrent без регистрации
Золото ЗОЛОТАЯ РАЗДАЧА! СКАЧАННОЕ НЕ ЗАСЧИТЫВАЕТСЯ! Золото
Дата: Зарегистрирован   [ Тип: внутренний ] Как тут cкачать?
MAGNET ссылка
MAGNET ссылка


Скачать .torrent

12 KB

Статус: проверено DHT
Скачан: торрент - 151 раз, раздача полностью - 86 раз
Размер: 4,06 GB
Оценка:  - (Голосов: 0)
Поблагодарили: 2
Поделиться ссылкой на эту раздачу с друзьями:
В контактеFacebookОдноклассникиTwitterLivejournalМой МирLiveinternet
 

 
Показать сообщения:    


Вы не можете начинать темы
Вы не можете отвечать на сообщения
Вы не можете редактировать свои сообщения
Вы не можете удалять свои сообщения
Вы не можете голосовать в опросах
Вы не можете прикреплять файлы к сообщениям
Вы можете скачивать файлы