Loading...
Error

Скачать Рассказ служанки / The Handmaid's Tale (Фолькер Шлёндорф) [1990, фантастика, триллер, драма, мелодрама, DVDRip-AVC] [MVO]+[DVO]+[Sub] торрент без регистрации

 
Статистика раздачи
Размер:  1,92 GB   |    Скачан:  100 раз
Сидов:  1  [  0 KB/s  ]  
 
Автор Сообщение

Marsianka

[] 

Информация о фильме
Название: Рассказ служанки
Оригинальное название: The Handmaid's Tale
Год выхода: 1990
Жанр: фантастика, триллер, драма, мелодрама
Режиссер: Фолькер Шлёндорф / Volker Schl¦ndorff
В ролях: Наташа Ричардсон (Kate/Offred), Фэй Данауэй (Serena Joy), Эйдан Куинн (Nick), Элизабет МакГоверн (Moira), Виктория Теннант (Aunt Lydia), Роберт Дювалл (Commander), Бланш Бэйкер (Ofglen), Трейси Линд (Janine/Ofwarren), Зоя Уилсон (Aunt Helena), Кэтрин Доуби (Aunt Elizabeth), Рейнер Шёне (Luke), Lucia Hartpeng (Cora)

О фильме:
В Республике Гилеад - полуфашистский режим. На каждом шагу - военные патрули. Люди в офицерской форме - самые желанные гости в респектабельных домах и самые желанные клиенты во всех государственных и прочих заведениях. Жены людей в офицерской форме - самые чопорные дамы в обществе. У них у всех сплошные достоинства и только одна досадная помеха: они не рожают детей.
А потому для вынашивания потомства насильно сгоняются со всей Республики женщины подходящего возраста, способные к деторождению, и под постоянным надзором живут в специальном охраняемом помещении, пока проходят курс подготовки. После чего их выбирают жены людей в офицерской форме в качестве подстилки для своих мужей Жесткое, реалистичное, перемешанное с кадрами, стилизованными под документ, повествование режиссера Фолькера Шлендорфа основано на романе Маргарет Этвуд, в котором лишь один фантастический допуск - придумана Республика Гилеад



Страна: США, Германия
Студия: Bioskop Film, Cinecom Entertainment Group, Cin™tudes Films
Продолжительность: 01:48:32
Перевод: 1) Профессиональный многолосный закадровый (R5 "Новый Диск")
2) Профессиональный двухголосный закадровый (НТВ+)

Файл
Кодек: h.264
Качество: DVDRip-AVC
Видео: 704x448 (1.85:1) @ 830x448 (анаморф), 23.976 fps, AVC, ~1820 Kbps, 0.241 bits/pixel
1) Английский, 48.0 KHz, AC3, 2 ch, 192 Kbps
2) Русский, 48.0 KHz, AC3, 6 ch, 384 Kbps (R5 "Новый Диск")
3) Русский, 48.0 KHz, AC3, 2 ch, 128 Kbps (НТВ+)
Субтитры:
1) Русские, VobSub (R5 "Новый Диск")
2) Английские, VobSub
Общее
Уникальный идентификатор : 186463433597165701030933820186689966850 (0x8C478D104A0C533EAA7C9D8166969302)
Полное имя : D:FilmsRasskaz_sluzhanki.1990.DVDRip-AVC.mkv
Формат : Matroska
Версия формата : Version 4 / Version 2
Размер файла : 1,92 Гбайт
Продолжительность : 1 ч. 48 м.
Общий поток : 2529 Кбит/сек
Дата кодирования : UTC 2013-05-01 16:09:46
Программа кодирования : mkvmerge v6.2.0 ('Promised Land') built on Apr 28 2013 12:22:01
Библиотека кодирования : libebml v1.3.0 + libmatroska v1.4.0

Видео
Идентификатор : 1
Формат : AVC
Формат/Информация : Advanced Video Codec
Профиль формата : High@L4.1
Параметр CABAC формата : Да
Параметр ReFrames формата : 16 кадров
Идентификатор кодека : V_MPEG4/ISO/AVC
Продолжительность : 1 ч. 48 м.
Битрейт : 1820 Кбит/сек
Ширина : 704 пикселя
Высота : 448 пикселей
Соотношение сторон : 1,85:1
Режим частоты кадров : Постоянный
Частота кадров : 23,976 кадра/сек
Цветовое пространство : YUV
Субдискретизация насыщенности : 4:2:0
Битовая глубина : 8 бит
Тип развёртки : Прогрессивная
Бит/(Пиксели*Кадры) : 0.241
Размер потока : 1,35 Гбайт (70%)
Библиотека кодирования : x264 core 130 r2273 b3065e6
Настройки программы : cabac=1 / ref=16 / deblock=1:0:0 / analyse=0x3:0x133 / me=umh / subme=10 / psy=1 / psy_rd=1.05:0.10 / mixed_ref=1 / me_range=32 / chroma_me=1 / trellis=2 / 8x8dct=1 / cqm=0 / deadzone=21,11 / fast_pskip=0 / chroma_qp_offset=-3 / threads=8 / lookahead_threads=1 / sliced_threads=0 / nr=0 / decimate=0 / interlaced=0 / bluray_compat=0 / constrained_intra=0 / bframes=8 / b_pyramid=2 / b_adapt=2 / b_bias=0 / direct=3 / weightb=1 / open_gop=0 / weightp=2 / keyint=240 / keyint_min=23 / scenecut=40 / intra_refresh=0 / rc_lookahead=60 / rc=2pass / mbtree=0 / bitrate=1820 / ratetol=1.0 / qcomp=0.60 / qpmin=0 / qpmax=60 / qpstep=4 / cplxblur=20.0 / qblur=0.5 / vbv_maxrate=50000 / vbv_bufsize=62500 / nal_hrd=none / ip_ratio=1.40 / pb_ratio=1.30 / aq=2:1.00
Default : Нет
Forced : Нет
Коэффициенты матрицы : BT.601

Аудио #1
Идентификатор : 2
Формат : AC-3
Формат/Информация : Audio Coding 3
Расширение режима : CM (complete main)
Параметр Endianness формата : Big
Идентификатор кодека : A_AC3
Продолжительность : 1 ч. 48 м.
Вид битрейта : Постоянный
Битрейт : 192 Кбит/сек
Каналы : 2 канала
Расположение каналов : Front: L R
Частота : 48,0 КГц
Битовая глубина : 16 бит
Метод сжатия : С потерями
Размер потока : 149 Мбайт (8%)
Язык : English
Default : Нет
Forced : Нет

Аудио #2
Идентификатор : 3
Формат : AC-3
Формат/Информация : Audio Coding 3
Расширение режима : CM (complete main)
Параметр Endianness формата : Big
Идентификатор кодека : A_AC3
Продолжительность : 1 ч. 48 м.
Вид битрейта : Постоянный
Битрейт : 384 Кбит/сек
Каналы : 6 каналов
Расположение каналов : Front: L C R, Side: L R, LFE
Частота : 48,0 КГц
Битовая глубина : 16 бит
Метод сжатия : С потерями
Размер потока : 298 Мбайт (15%)
Язык : Russian
Default : Да
Forced : Нет

Аудио #3
Идентификатор : 4
Формат : AC-3
Формат/Информация : Audio Coding 3
Расширение режима : CM (complete main)
Параметр Endianness формата : Big
Идентификатор кодека : A_AC3
Продолжительность : 1 ч. 48 м.
Вид битрейта : Постоянный
Битрейт : 128 Кбит/сек
Каналы : 2 канала
Расположение каналов : Front: L R
Частота : 48,0 КГц
Битовая глубина : 16 бит
Метод сжатия : С потерями
Размер потока : 99,4 Мбайт (5%)
Язык : Russian
Default : Нет
Forced : Нет

Текст #1
Идентификатор : 5
Формат : VobSub
Режим смешивания : zlib
Идентификатор кодека : S_VOBSUB
Идентификатор кодека/Информация : The same subtitle format used on DVDs
Язык : Russian
Default : Нет
Forced : Нет

Текст #2
Идентификатор : 6
Формат : VobSub
Режим смешивания : zlib
Идентификатор кодека : S_VOBSUB
Идентификатор кодека/Информация : The same subtitle format used on DVDs
Язык : English
Default : Нет
Forced : Нет

Меню
00:00:00.000 : en:Chapter 01
00:05:54.334 : en:Chapter 02
00:12:47.367 : en:Chapter 03
00:15:54.867 : en:Chapter 04
00:24:15.534 : en:Chapter 05
00:34:30.201 : en:Chapter 06
00:43:04.768 : en:Chapter 07
00:47:16.968 : en:Chapter 08
00:49:58.368 : en:Chapter 09
00:55:26.002 : en:Chapter 10
01:06:26.102 : en:Chapter 11
01:13:25.669 : en:Chapter 12
01:18:24.470 : en:Chapter 13
01:29:24.470 : en:Chapter 14
01:32:07.304 : en:Chapter 15
01:44:01.471 : en:Chapter 16
01:48:24.938 : en:Chapter 17
frame I:1026 Avg QP:14.63 size: 46472
frame P:32317 Avg QP:17.65 size: 18031
frame B:122788 Avg QP:19.61 size: 6930
Источник - R5 "Новый диск" (на основе R1)+ синхронизирован перевод НТВ.
Релиз от: от Temperest



Скачать Рассказ.служанки.The.Handmaid's.Tale.(Фолькер.Шлёндорф).[1990.фантастика.триллер.драма.мелодрама.DVDRip-AVC].[MVO]+[DVO]+[Sub].torrent без регистрации
Золото ЗОЛОТАЯ РАЗДАЧА! СКАЧАННОЕ НЕ ЗАСЧИТЫВАЕТСЯ! Золото
Дата: Зарегистрирован   [ Тип: внутренний ] Как тут cкачать?
MAGNET ссылка
MAGNET ссылка


Скачать .torrent

20 KB

Статус: проверено DHT
Скачан: торрент - 100 раз, раздача полностью - 4 раз
Размер: 1,92 GB
Оценка:  - (Голосов: 0)
Поблагодарили: 1
Поделиться ссылкой на эту раздачу с друзьями:
В контактеFacebookОдноклассникиTwitterLivejournalМой МирLiveinternet
 

 
Показать сообщения:    


Вы не можете начинать темы
Вы не можете отвечать на сообщения
Вы не можете редактировать свои сообщения
Вы не можете удалять свои сообщения
Вы не можете голосовать в опросах
Вы не можете прикреплять файлы к сообщениям
Вы можете скачивать файлы