Loading...
Error

Скачать Лак для волос / Hairspray (Адам Шэнкман) [2007, комедия, драма, мюзикл, ремейк, BDRip-AVC] [Dub]+[Sub] торрент без регистрации

 
Статистика раздачи
Размер:  2,91 GB   |    Скачан:  120 раз
Сидов:  1  [  0 KB/s  ]  
 
Автор Сообщение

Marsianka

[] 

Год выпуска: 2007
Производство: США, Великобритания / New Line Cinema, Gabriel Simon Production Services, Storyline Entertainment
Жанр: комедия, драма, мюзикл, ремейк
Продолжительность: 01:56:06
Перевод: Профессиональный (полное дублирование)
Субтитры: Английские, русские (полные + форс.)
Режиссер: Адам Шэнкман

В ролях: Джон Траволта, Мишель Пфайффер, Кристофер Уокен, Аманда Байнс, Никки Блонски, Джеймс Мэрсден, Куин Латифа, Бриттани Сноу, Зак Эфрон, Элайджа Келли, Эллисон Джэнни

О фильме:
В 1962 году грядущие перемены можно было почувствовать даже в воздухе города Балтимора. Трейси Тернблад, девушка с большой копной волос и с большими мечтами, живет только одной страстью в жизни - она хочет танцевать в «Шоу Корни Коллинс». Когда ей выпадает шанс, она делает прорыв к славе и звездам, а также попадается на глаза мечте всех подростков Линку Ларкину (Зак Эфрон). Но программный менеджер (Мишель Пфайффер) настроена против нее. Трейси приходится прибегнуть к помощи своей подруги Пенни (Аманда Байнс), мамы (Джон Траволта) и бойкой ведущей Мотормауф Мэйбель (Куин Латифа), чтобы показать миру, что для исполнения заветной мечты нужно уметь двигаться в такт музыке, а также иметь ЛАК ДЛЯ ВОЛОС!

Бюджет: $75 000 000

Качество: BDRip-AVC [BDRemux]
Формат: MKV
Видео: H.264, 1068x454 (2,35:1), 23,976 кадр/сек, 2691 Кбит/сек, 0.231 bit/pixel
Аудио#1: 48 kHz, AC3 Dolby Digital, 3/2 (L,C,R,l,r) + LFE ch, ~448.00 kbps avg | RUS
Аудио#2: 48 kHz, AC3 Dolby Digital, 3/2 (L,C,R,l,r) + LFE ch, ~448.00 kbps avg | ENG

Автор рипа:
Общее
Уникальный идентификатор : 195876913705017050793932525616696303557 (0x935C857750D88BB29099D59B68269FC5)
Полное имя : Lak.Dlja.Volos.2007.D.BDRip.x264.potroks.mkv
Формат : Matroska
Версия формата : Version 4 / Version 2
Размер файла : 2,91 Гбайт
Продолжительность : 1 ч. 56 м.
Общий поток : 3589 Кбит/сек
Название фильма : -=POTROKS=-
Дата кодирования : UTC 2013-05-06 15:49:32
Программа кодирования : mkvmerge v5.9.0 ('On The Loose') built on Dec 15 2012 16:39:58
Библиотека кодирования : libebml v1.3.0 + libmatroska v1.4.0

Видео
Идентификатор : 1
Формат : AVC
Формат/Информация : Advanced Video Codec
Профиль формата : High@L4.1
Параметр CABAC формата : Да
Параметр ReFrames формата : 9 кадров
Идентификатор кодека : V_MPEG4/ISO/AVC
Продолжительность : 1 ч. 56 м.
Битрейт : 2691 Кбит/сек
Ширина : 1068 пикселей
Высота : 454 пикселя
Соотношение сторон : 2,35:1
Режим частоты кадров : Постоянный
Частота кадров : 23,976 кадра/сек
Цветовое пространство : YUV
Субдискретизация насыщенности : 4:2:0
Битовая глубина : 8 бит
Тип развёртки : Прогрессивная
Бит/(Пиксели*Кадры) : 0.231
Размер потока : 2,13 Гбайт (73%)
Заголовок : Hairspray
Библиотека кодирования : x264 core 125 r2208 d9d2288
Настройки программы : cabac=1 / ref=9 / deblock=1:-2:-2 / analyse=0x3:0x133 / me=umh / subme=9 / psy=1 / psy_rd=1.08:0.02 / mixed_ref=1 / me_range=32 / chroma_me=1 / trellis=2 / 8x8dct=1 / cqm=0 / deadzone=21,11 / fast_pskip=0 / chroma_qp_offset=-3 / threads=9 / lookahead_threads=1 / sliced_threads=0 / nr=0 / decimate=1 / interlaced=0 / bluray_compat=0 / constrained_intra=0 / bframes=10 / b_pyramid=2 / b_adapt=2 / b_bias=0 / direct=3 / weightb=1 / open_gop=0 / weightp=2 / keyint=240 / keyint_min=23 / scenecut=40 / intra_refresh=0 / rc_lookahead=100 / rc=2pass / mbtree=1 / bitrate=2691 / ratetol=1.0 / qcomp=0.70 / qpmin=0 / qpmax=69 / qpstep=4 / cplxblur=20.0 / qblur=0.5 / vbv_maxrate=20000 / vbv_bufsize=20000 / nal_hrd=none / ip_ratio=1.35 / aq=1:0.80
Язык : English
Default : Да
Forced : Нет

Аудио #1
Идентификатор : 2
Формат : AC-3
Формат/Информация : Audio Coding 3
Расширение режима : CM (complete main)
Параметр Endianness формата : Big
Идентификатор кодека : A_AC3
Продолжительность : 1 ч. 56 м.
Вид битрейта : Постоянный
Битрейт : 448 Кбит/сек
Каналы : 6 каналов
Расположение каналов : Front: L C R, Side: L R, LFE
Частота : 48,0 КГц
Битовая глубина : 16 бит
Метод сжатия : С потерями
Размер потока : 372 Мбайт (12%)
Заголовок : Dub | DD 5.1 @ 448 kbps
Язык : Russian
Default : Да
Forced : Да

Аудио #2
Идентификатор : 3
Формат : AC-3
Формат/Информация : Audio Coding 3
Расширение режима : CM (complete main)
Параметр Endianness формата : Big
Идентификатор кодека : A_AC3
Продолжительность : 1 ч. 56 м.
Вид битрейта : Постоянный
Битрейт : 448 Кбит/сек
Каналы : 6 каналов
Расположение каналов : Front: L C R, Side: L R, LFE
Частота : 48,0 КГц
Битовая глубина : 16 бит
Метод сжатия : С потерями
Размер потока : 372 Мбайт (12%)
Заголовок : Original | DD 5.1 @ 448 kbps
Язык : English
Default : Нет
Forced : Нет

Текст #1
Идентификатор : 4
Формат : UTF-8
Идентификатор кодека : S_TEXT/UTF8
Идентификатор кодека/Информация : UTF-8 Plain Text
Заголовок : Forced, Songs
Язык : Russian
Default : Да
Forced : Да

Текст #2
Идентификатор : 5
Формат : UTF-8
Идентификатор кодека : S_TEXT/UTF8
Идентификатор кодека/Информация : UTF-8 Plain Text
Заголовок : Full
Язык : Russian
Default : Нет
Forced : Нет

Текст #3
Идентификатор : 6
Формат : UTF-8
Идентификатор кодека : S_TEXT/UTF8
Идентификатор кодека/Информация : UTF-8 Plain Text
Язык : English
Default : Нет
Forced : Нет

avs [info]: 1068x454p 1:1 @ 2500000/104271 fps (cfr)
x264 [info]: using SAR=1/1
x264 [info]: using cpu capabilities: MMX2 SSE2Fast SSSE3 FastShuffle SSE4.2 AVX XOP FMA4 SSEMisalign LZCNT
x264 [info]: profile High, level 4.1

x264 [info]: frame I:1564 Avg QP:17.55 size: 67712
x264 [info]: frame P:40472 Avg QP:18.68 size: 27346
x264 [info]: frame B:125002 Avg QP:21.51 size: 9045
x264 [info]: consecutive B-frames: 1.7% 3.3% 9.1% 47.4% 16.8% 19.7% 1.0% 0.4% 0.1% 0.3% 0.1%
x264 [info]: mb I I16..4: 8.8% 68.5% 22.7%
x264 [info]: mb P I16..4: 1.7% 12.1% 2.8% P16..4: 41.8% 19.5% 17.0% 1.1% 0.3% skip: 3.7%
x264 [info]: mb B I16..4: 0.2% 1.5% 0.4% B16..8: 39.1% 11.8% 4.2% direct: 5.5% skip:37.4% L0:37.8% L1:43.4% BI:18.7%
x264 [info]: 8x8 transform intra:71.8% inter:63.3%
x264 [info]: direct mvs spatial:97.2% temporal:2.8%
x264 [info]: coded y,uvDC,uvAC intra: 82.7% 90.9% 74.3% inter: 24.0% 30.0% 10.4%
x264 [info]: i16 v,h,dc,p: 24% 13% 5% 58%
x264 [info]: i8 v,h,dc,ddl,ddr,vr,hd,vl,hu: 19% 9% 4% 8% 12% 14% 12% 12% 11%
x264 [info]: i4 v,h,dc,ddl,ddr,vr,hd,vl,hu: 16% 8% 3% 8% 14% 15% 13% 12% 11%
x264 [info]: i8c dc,h,v,p: 37% 20% 24% 19%
x264 [info]: Weighted P-Frames: Y:1.8% UV:0.8%
x264 [info]: ref P L0: 51.7% 12.8% 16.1% 5.6% 4.5% 3.1% 2.7% 1.6% 1.7% 0.2% 0.0%
x264 [info]: ref B L0: 83.7% 8.5% 3.3% 1.7% 1.2% 0.9% 0.5% 0.3%
x264 [info]: ref B L1: 94.8% 5.2%
x264 [info]: kb/s:2690.79

x264 [total]: encoded 167038 frames, 12.13 fps, 2690.79 kb/s



Скачать Лак.для.волос.Hairspray.(Адам.Шэнкман).[2007.комедия.драма.мюзикл.ремейк.BDRip-AVC].[Dub]+[Sub].torrent без регистрации
Золото ЗОЛОТАЯ РАЗДАЧА! СКАЧАННОЕ НЕ ЗАСЧИТЫВАЕТСЯ! Золото
Дата: Зарегистрирован   [ Тип: внутренний ] Как тут cкачать?
MAGNET ссылка
MAGNET ссылка


Скачать .torrent

15 KB

Статус: проверено DHT
Скачан: торрент - 120 раз, раздача полностью - 3 раз
Размер: 2,91 GB
Оценка:  - (Голосов: 0)
Поблагодарили: 1
Поделиться ссылкой на эту раздачу с друзьями:
В контактеFacebookОдноклассникиTwitterLivejournalМой МирLiveinternet
 

 
Показать сообщения:    


Вы не можете начинать темы
Вы не можете отвечать на сообщения
Вы не можете редактировать свои сообщения
Вы не можете удалять свои сообщения
Вы не можете голосовать в опросах
Вы не можете прикреплять файлы к сообщениям
Вы можете скачивать файлы