Loading...
Error

Скачать Ночная смена / Graveyard Shift (Ральф С. Синглтон) [1990 г., ужасы, HDRip-AVC] [MVO] торрент без регистрации

 
Статистика раздачи
Размер:  2,18 GB   |    Скачан:  105 раз
Сидов:  1  [  0 KB/s  ]  
 
Автор Сообщение

durik

[] 

Ночная смена / Graveyard Shift

Название: Ночная смена
Оригинальное название: Graveyard Shift
Год выхода: 1990
Жанр: ужасы
Режиссер: Ральф С. Синглтон
В ролях: Дэвид Эндрюс, Келли Вульф, Стефен Махт, Эндрю Дивофф, Вик Полицос, Брэд Дуриф, Роберт Алан Бойт, Илона Марголис, Джимми Вудард, Джонатан Эмерсон

О фильме:
Фильм по произведению Стивена Кинга.
Гейтсхолл — маленький заброшенный американский городишко. Расположенная неподалеку от кладбища и пришедшая со временем в упадок ткацкая фабрика стала прибежищем полчища крыс.
Группа рабочих спускается в подвал, чтобы расчистить его. В результате аварии они оказываются в западне — в царстве страха и ужаса.



Страна: США , Япония
Студия: Graveyard Productions, JVC Entertainment Networks, Paramount Pictures
Продолжительность: 01:26:18
Перевод: Профессиональный многоголосый (закадровый)

Кодек: AVC / MKV
Качество: HDRip-AVC
Видео: 1024x576 (16:9), 3388 kbps, 23,976 fps, 0,240 Bits/(Pixel*Frame)
Звук: AC3, 48 kHz, 224 kbps, 2 ch
Субтитры: Отсутствуют

Семпл

Автор рипа: Bathory

General
Unique ID : 170807771781698599226989374930334998703 (0x8080615776C333DCB5D9FB3508F360AF)
Complete name : G:Graveyard.Shift.1990.HDRIp_AVC.mkv
Format : Matroska
Format version : Version 2
File size : 2.18 GiB
Duration : 1h 26mn
Overall bit rate : 3 613 Kbps
Encoded date : UTC 2013-05-08 19:30:27
Writing application : mkvmerge v6.1.0 ('Old Devil') built on Mar 2 2013 14:32:37
Writing library : libebml v1.3.0 + libmatroska v1.4.0

Video
ID : 1
Format : AVC
Format/Info : Advanced Video Codec
Format profile : High@L4.1
Format settings, CABAC : Yes
Format settings, ReFrames : 14 frames
Codec ID : V_MPEG4/ISO/AVC
Duration : 1h 26mn
Bit rate : 3 388 Kbps
Width : 1 024 pixels
Height : 576 pixels
Display aspect ratio : 16:9
Frame rate mode : Constant
Frame rate : 23.976 fps
Color space : YUV
Chroma subsampling : 4:2:0
Bit depth : 8 bits
Scan type : Progressive
Bits/(Pixel*Frame) : 0.240
Stream size : 2.00 GiB (92%)
Writing library : x264 core 130 r2273 b3065e6
Encoding settings : cabac=1 / ref=14 / deblock=1:-1:-1 / analyse=0x3:0x133 / me=umh / subme=10 / psy=1 / psy_rd=1.00:0.00 / mixed_ref=1 / me_range=24 / chroma_me=1 / trellis=2 / 8x8dct=1 / cqm=0 / deadzone=21,11 / fast_pskip=1 / chroma_qp_offset=-2 / threads=6 / lookahead_threads=1 / sliced_threads=0 / nr=20 / decimate=1 / interlaced=0 / bluray_compat=0 / constrained_intra=0 / bframes=8 / b_pyramid=2 / b_adapt=2 / b_bias=0 / direct=3 / weightb=1 / open_gop=0 / weightp=2 / keyint=240 / keyint_min=23 / scenecut=40 / intra_refresh=0 / rc_lookahead=60 / rc=2pass / mbtree=1 / bitrate=3388 / ratetol=1.0 / qcomp=0.60 / qpmin=10 / qpmax=51 / qpstep=4 / cplxblur=20.0 / qblur=0.5 / vbv_maxrate=62500 / vbv_bufsize=78125 / nal_hrd=none / ip_ratio=1.40 / aq=1:1.00
Default : Yes
Forced : No

Audio
ID : 2
Format : AC-3
Format/Info : Audio Coding 3
Mode extension : CM (complete main)
Format settings, Endianness : Big
Codec ID : A_AC3
Duration : 1h 26mn
Bit rate mode : Constant
Bit rate : 224 Kbps
Channel(s) : 2 channels
Channel positions : Front: L R
Sampling rate : 48.0 KHz
Bit depth : 16 bits
Compression mode : Lossy
Stream size : 138 MiB (6%)
Default : Yes
Forced : No



Скачать Ночная.смена.Graveyard.Shift.(Ральф.С.Синглтон).[1990.г.ужасы.HDRip-AVC].[MVO].torrent без регистрации
Золото ЗОЛОТАЯ РАЗДАЧА! СКАЧАННОЕ НЕ ЗАСЧИТЫВАЕТСЯ! Золото
Дата: Зарегистрирован   [ Тип: внутренний ] Как тут cкачать?
MAGNET ссылка
MAGNET ссылка


Скачать .torrent

12 KB

Статус: проверено DHT
Скачан: торрент - 105 раз, раздача полностью - 4 раз
Размер: 2,18 GB
Оценка:  - (Голосов: 0)
Поблагодарили: 2
Поделиться ссылкой на эту раздачу с друзьями:
В контактеFacebookОдноклассникиTwitterLivejournalМой МирLiveinternet
 

 
Показать сообщения:    


Вы не можете начинать темы
Вы не можете отвечать на сообщения
Вы не можете редактировать свои сообщения
Вы не можете удалять свои сообщения
Вы не можете голосовать в опросах
Вы не можете прикреплять файлы к сообщениям
Вы можете скачивать файлы