Loading...
Error

Скачать Уличный мусор / Street Trash (Дж. Майкл Муро) [1987 г., ужасы, комедия, DVDRip-AVC] [VO (Гранкин)] торрент без регистрации

 
Статистика раздачи
Размер:  1,46 GB   |    Скачан:  103 раза
Сидов:  1  [  0 KB/s  ]  
 
Автор Сообщение

durik

[] 

Уличный мусор / Street Trash

Название: Уличный мусор
Оригинальное название: Street Trash
Год выхода: 1987
Жанр: ужасы, комедия
Режиссер: Дж. Майкл Муро
В ролях: Майк Лэки, Билл Чепил, Марк Сферразза, Джейн Аракава, Николь Поттер, Пэт Райан, Клеренс Джермон, Бернард Перлман, Мириам Цукер

О фильме:
Хозяин питейного магазина находит в подвальных запасниках своего учреждения неизвестные ему доселе склянки с горячительным под названием “Гадюка”, доставшиеся в наследие от старого хозяина. Не долго думая, он выставил их в продажу по сниженным ценам. Чего добру пропадать. Дело пошло, его стали раскупать (и воровать) бомжи с расположившегося неподалёку автомобильного кладбища, служащего их домом. Испившие подобную мерзость тотчас начинают плавиться, превращаясь в кровавую кашу, которая сама по себе опасна своей кислотностью. Загадочная жидкость не пощадит никого, будь ты бизнесмен или бомж…



Страна: США
Студия: Chaos Productions
Продолжительность: 01:41:06
Перевод: Профессиональный (одноголосый) Гранкин

Кодек: AVC / MKV
Качество: DVDRip-AVC
Видео: 720x400 (16:9), 1839 kbps, 23,976 fps, 0,266 Bits/(Pixel*Frame)
Звук: AC3, 48 kHz, 224 kbps, 2 ch
Субтитры: Отсутствуют

Семпл

Автор рипа: Bathory

General
Unique ID : 237649591742933916423511990290560103678 (0xB2C9A5811571065A81327BD70504B4FE)
Complete name : G:\Street_Trash\VIDEO_TS\street.trash.1987.dvdrip_avc.mkv
Format : Matroska
Format version : Version 2
File size : 1.46 GiB
Duration : 1h 41mn
Overall bit rate : 2 064 Kbps
Encoded date : UTC 2013-05-09 03:41:02
Writing application : mkvmerge v6.1.0 ('Old Devil') built on Mar 2 2013 14:32:37
Writing library : libebml v1.3.0 + libmatroska v1.4.0

Video
ID : 1
Format : AVC
Format/Info : Advanced Video Codec
Format profile : High@L4.1
Format settings, CABAC : Yes
Format settings, ReFrames : 16 frames
Codec ID : V_MPEG4/ISO/AVC
Duration : 1h 41mn
Bit rate : 1 839 Kbps
Width : 720 pixels
Height : 400 pixels
Display aspect ratio : 16:9
Frame rate mode : Constant
Frame rate : 23.976 fps
Color space : YUV
Chroma subsampling : 4:2:0
Bit depth : 8 bits
Scan type : Progressive
Bits/(Pixel*Frame) : 0.266
Stream size : 1.27 GiB (87%)
Writing library : x264 core 130 r2273 b3065e6
Encoding settings : cabac=1 / ref=16 / deblock=1:-1:-1 / analyse=0x3:0x133 / me=umh / subme=10 / psy=1 / psy_rd=1.00:0.00 / mixed_ref=1 / me_range=24 / chroma_me=1 / trellis=2 / 8x8dct=1 / cqm=0 / deadzone=21,11 / fast_pskip=1 / chroma_qp_offset=-2 / threads=6 / lookahead_threads=1 / sliced_threads=0 / nr=10 / decimate=1 / interlaced=0 / bluray_compat=0 / constrained_intra=0 / bframes=8 / b_pyramid=2 / b_adapt=2 / b_bias=0 / direct=3 / weightb=1 / open_gop=0 / weightp=2 / keyint=240 / keyint_min=23 / scenecut=40 / intra_refresh=0 / rc_lookahead=60 / rc=2pass / mbtree=1 / bitrate=1839 / ratetol=1.0 / qcomp=0.60 / qpmin=10 / qpmax=51 / qpstep=4 / cplxblur=20.0 / qblur=0.5 / vbv_maxrate=62500 / vbv_bufsize=78125 / nal_hrd=none / ip_ratio=1.40 / aq=1:1.00
Default : Yes
Forced : No

Audio
ID : 2
Format : AC-3
Format/Info : Audio Coding 3
Mode extension : CM (complete main)
Format settings, Endianness : Big
Codec ID : A_AC3
Duration : 1h 41mn
Bit rate mode : Constant
Bit rate : 224 Kbps
Channel(s) : 2 channels
Channel positions : Front: L R
Sampling rate : 48.0 KHz
Bit depth : 16 bits
Compression mode : Lossy
Stream size : 162 MiB (11%)
Default : Yes
Forced : No



Скачать Уличный.мусор.Street.Trash.(Дж.Майкл.Муро).[1987.г.ужасы.комедия.DVDRip-AVC].[VO.(Гранкин)].torrent без регистрации
Золото ЗОЛОТАЯ РАЗДАЧА! СКАЧАННОЕ НЕ ЗАСЧИТЫВАЕТСЯ! Золото
Дата: Зарегистрирован   [ Тип: внутренний ] Как тут cкачать?
MAGNET ссылка
MAGNET ссылка


Скачать .torrent

15 KB

Статус: проверено DHT
Скачан: торрент - 103 раз, раздача полностью - 8 раз
Размер: 1,46 GB
Оценка:  5 (Голосов: 1)
Поблагодарили: 2
Поделиться ссылкой на эту раздачу с друзьями:
В контактеFacebookОдноклассникиTwitterLivejournalМой МирLiveinternet
 

 
Показать сообщения:    


Вы не можете начинать темы
Вы не можете отвечать на сообщения
Вы не можете редактировать свои сообщения
Вы не можете удалять свои сообщения
Вы не можете голосовать в опросах
Вы не можете прикреплять файлы к сообщениям
Вы можете скачивать файлы