Loading...
Error

Скачать Американская семейка / Modern Family (сезон 4) (Джейсон Уайнер, Майкл Спиллер, Крис Кох) [2012, комедия, WEB-DLRip] [DVO (Кубик в Кубе)] торрент без регистрации

 
Статистика раздачи
Размер:  5,69 GB   |    Скачан:  2529 раз
Сидов:  1  [  0 KB/s  ]   Личеров:  1  [  219 KB/s  ]  
 
Автор Сообщение

МихаНЕзатор

[] 

Семейные ценности / Modern Family

Год выпуска: 2012
Страна: США
Жанр: комедия
Продолжительность: 25 мин
Перевод: Профессиональный двухголосый закадровый (Кубик в Кубе)
Субтитры: нет
Режиссер: Джейсон Уайнер, Майкл Спиллер, Крис Кох

В ролях:
Эд ОНил, Джули Боуэн, Ти Баррелл, София Вергара, Джесси Тайлер Фергюсон, Эрик Стоунстрит, Сара Хайланд, Нолан Гоулд, Эриель Винтер, Рико Родригез и др.

Описание:
Семейка Данфи впадает в ностальгию, когда Фил собирается избавится от старого автомобиля. Кемерон просит Джея вмешаться, ведь Митчелл собирается построить замок для Лили. Мэнни приглашает девушку, которая заставляет Глорию нервничать.
Modern Family это псевдодокументальный взгляд на сложную жизнь и любовь этой большой семьи.
Релиз:

Качество: WEB-DLRip
Формат: AVI
Видео кодек: XviD
Аудио кодек: MP3
Видео: 624x352 (1.77:1), 23.976 fps, XviD build 65 ~1280 kbps avg, 0.24 bit/pixel
Audio Rus: 48 kHz, MPEG Layer 3, 2 ch, ~224.00 kbps avg
Audio Eng: 48 kHz, MPEG Layer 3, 2 ch, ~224.00 kbps avg


Озвучка: Кубик в Кубе
Перевод: Алексей Бочкарев
Рип: ЛП

АНОНСЫ ПОПУЛЯРНЫХ РАЗДАЧ


Торрент обновлён, добавлена 24-я серия!


General
Complete name : F:ФТП 2WorkKybik v KybeModern Family Season 4 Kybik v KybeModern.Family.s04e01.rus.eng.Kybik.v.Kybe.avi
Format : AVI
Format/Info : Audio Video Interleave
File size : 270 MiB
Duration : 21mn 38s
Overall bit rate : 1 743 Kbps
Writing application : VirtualDubMod 1.5.10.2 (build 2540/release)
Writing library : VirtualDubMod build 2540/release

Video
ID : 0
Format : MPEG-4 Visual
Format profile : Advanced Simple@L5
Format settings, BVOP : 1
Format settings, QPel : No
Format settings, GMC : No warppoints
Format settings, Matrix : Default (H.263)
Codec ID : XVID
Codec ID/Hint : XviD
Duration : 21mn 38s
Bit rate : 1 281 Kbps
Width : 624 pixels
Height : 352 pixels
Display aspect ratio : 16:9
Frame rate : 23.976 fps
Color space : YUV
Chroma subsampling : 4:2:0
Bit depth : 8 bits
Scan type : Progressive
Compression mode : Lossy
Bits/(Pixel*Frame) : 0.243
Stream size : 198 MiB (74%)
Writing library : XviD 65

Audio #1
ID : 1
Format : MPEG Audio
Format version : Version 1
Format profile : Layer 3
Codec ID : 55
Codec ID/Hint : MP3
Duration : 21mn 38s
Bit rate mode : Constant
Bit rate : 224 Kbps
Channel(s) : 2 channels
Sampling rate : 48.0 KHz
Compression mode : Lossy
Stream size : 34.7 MiB (13%)
Alignment : Aligned on interleaves
Interleave, duration : 42 ms (1.00 video frame)
Interleave, preload duration : 504 ms

Audio #2
ID : 2
Format : MPEG Audio
Format version : Version 1
Format profile : Layer 3
Mode : Joint stereo
Mode extension : MS Stereo
Codec ID : 55
Codec ID/Hint : MP3
Duration : 21mn 38s
Bit rate mode : Constant
Bit rate : 224 Kbps
Channel(s) : 2 channels
Sampling rate : 48.0 KHz
Compression mode : Lossy
Stream size : 34.7 MiB (13%)
Alignment : Aligned on interleaves
Interleave, duration : 42 ms (1.00 video frame)
Interleave, preload duration : 504 ms
Writing library : LAME3.99r
Encoding settings : -m j -V 4 -q 2 -lowpass 19.4 -b 224


Внимание! Раздача ведётся путём добавления новых серий; при каждом добавлении создётся новый торрент. Чтобы начать докачку новой серии, пользователям необходимо сделать следующее: (1) остановить скачивание, (2) удалить старый торрент у себя из клиента (старые серии удалять не надо), (3) скачать новый торрент и запустить его у себя в клиенте вместо старого, при этом указать клиенту путь в старую папку куда и должно происходить скачивание новых серий.

Ваш клиент при этом должен произвести хеширование (проверку) старой папки (если не производит сам - помогите ему сделать это), и будет докачивать только те серии которых у вас ещё нет. Старые серии при этом не удаляются, а продолжают раздаваться!

Eсли вы уже удалили старые серии, то предотвратить повторную закачку старых серий можно, отжав галочку в соответсвующих местах при запуске нового торрента.



Скачать Американская.семейка.Modern.Family.(сезон.4).(Джейсон.Уайнер.Майкл.Спиллер.Крис.Кох).[2012.комедия.WEB-DLRip].[DVO.(Кубик.в.Кубе)].torrent без регистрации
Золото ЗОЛОТАЯ РАЗДАЧА! СКАЧАННОЕ НЕ ЗАСЧИТЫВАЕТСЯ! Золото
Дата: Зарегистрирован   [ Тип: внутренний ] Как тут cкачать?
MAGNET ссылка
MAGNET ссылка


Скачать .torrent

17 KB

Статус: проверено DHT
Скачан: торрент - 2529 раз, раздача полностью - 19 раз
Размер: 5,69 GB
Оценка:  5 (Голосов: 1)
Поблагодарили: 2
Поделиться ссылкой на эту раздачу с друзьями:
В контактеFacebookОдноклассникиTwitterLivejournalМой МирLiveinternet
 

 
Показать сообщения:    


Вы не можете начинать темы
Вы не можете отвечать на сообщения
Вы не можете редактировать свои сообщения
Вы не можете удалять свои сообщения
Вы не можете голосовать в опросах
Вы не можете прикреплять файлы к сообщениям
Вы можете скачивать файлы