Loading...
Error

Скачать Герцогиня и Драный Лис / The Duchess and the Dirtwater Fox (Мелвин Фрэнк) [1976, комедия, вестерн, DVDRip-AVC] [DVO]+[Оригинал] торрент без регистрации

 
Статистика раздачи
Размер:  1,45 GB   |    Скачан:  108 раз
Сидов:  1  [  0 KB/s  ]  
 
Автор Сообщение

Marsianka

[] 

Страна: США
Жанр: комедия, вестерн
Год выпуска: 1976
Продолжительность: 01:43:41
Перевод: Профессиональный (двухголосый) + Оригинальный
Режиссер: Мелвин Фрэнк / Melvin Frank
В ролях: Джордж Сигал (Charlie «Dirtwater Fox» Malloy), Голди Хоун (Amanda Quaid / Duchess Swansbury), Конрад Дженис (Gladstone, (Widdicombe's assistant)), Тэйер Дэвид (Josiah Widdicombe, (Mormon patriarch)), Дженнифер Ли (Trollop), Сид Гулд (Rabbi), Пэт Эст (Music hall singer), Э.Дж. Андре (Prospector), Ричард Фарнсуорт (Stagecoach driver), Клиффорд Тёркнетт (Mr. Weatherly, (ticket aent)), Хэрлан Кнудсон (Cooper), Жан Фавр (Drunk / Usher)
Описание: 1882 год. Аманда - искательница приключений и танцовщица. Чарли - карточный шулер. Оба они любят деньги, особенно добытые нечестным путем. Влюбившись в него, она понимает, что есть вещи и попрекраснее денег. Теперь остается только ему пересмотреть свое отношение к жизни. Вместе они оказываются втянуты в аферу с кражей 40 тысяч долларов...


MPAA: PG - Рекомендуется присутствие родителей
Семпл
Качество: DVDRip
Контейнер: MKV

Видео: AVC, 720x364 @ 853x364 (2.35:1), 1613 kbps, 23.976 fps, 0.257 bpp
Аудио 1: русский / AC3 / 2.0 / 48 kHz / 192 kbps
Аудио 2: английский / AC3 / 2.0 / 48 kHz / 192 kbps
Навигация по главам: есть

General
Unique ID : 235453514898054380275170251511519562611 (0xB122B28E66300CBDB476EC088E84CB73)
Complete name : C:TorrentGerzoginja.DVDRipAVC.mkv
Format : Matroska
Format version : Version 2
File size : 1.45 GiB
Duration : 1h 43mn
Overall bit rate : 1 999 Kbps
Movie name : = Герцогиня и Драный Лис / The Duchess and the Dirtwater Fox DVDRip by SC Kosmos =
Encoded date : UTC 2013-05-08 08:40:24
Writing application : mkvmerge v3.3.0 ('Language') gebaut am Mar 24 2010 14:59:24
Writing library : libebml v0.8.0 + libmatroska v0.9.0

Video
ID : 1
Format : AVC
Format/Info : Advanced Video Codec
Format profile : High@L4.1
Format settings, CABAC : Yes
Format settings, ReFrames : 12 frames
Codec ID : V_MPEG4/ISO/AVC
Duration : 1h 43mn
Bit rate : 1 613 Kbps
Width : 720 pixels
Height : 364 pixels
Display aspect ratio : 2.35:1
Original display aspect ratio : 2.35:1
Frame rate : 23.976 fps
Color space : YUV
Chroma subsampling : 4:2:0
Bit depth : 8 bits
Scan type : Progressive
Bits/(Pixel*Frame) : 0.257
Stream size : 1.14 GiB (79%)
Title : Герцогиня и Драный Лис / The Duchess and the Dirtwater Fox DVDRip by SC Kosmos
Writing library : x264 core 132 r2309 3b1f1f7
Encoding settings : cabac=1 / ref=12 / deblock=1:-2:-2 / analyse=0x3:0x112 / me=umh / subme=10 / psy=1 / psy_rd=1.00:0.15 / mixed_ref=1 / me_range=32 / chroma_me=1 / trellis=2 / 8x8dct=1 / cqm=0 / deadzone=21,11 / fast_pskip=1 / chroma_qp_offset=-3 / threads=12 / lookahead_threads=1 / sliced_threads=0 / nr=0 / decimate=1 / interlaced=0 / bluray_compat=0 / constrained_intra=0 / bframes=10 / b_pyramid=2 / b_adapt=1 / b_bias=0 / direct=3 / weightb=1 / open_gop=0 / weightp=1 / keyint=240 / keyint_min=23 / scenecut=40 / intra_refresh=0 / rc_lookahead=40 / rc=2pass / mbtree=0 / bitrate=1613 / ratetol=1.0 / qcomp=0.60 / qpmin=0 / qpmax=69 / qpstep=4 / cplxblur=20.0 / qblur=0.5 / vbv_maxrate=62500 / vbv_bufsize=78125 / nal_hrd=none / ip_ratio=1.40 / pb_ratio=1.30 / aq=1:1.00
Language : English
Default : No
Forced : No

Audio #1
ID : 2
Format : AC-3
Format/Info : Audio Coding 3
Mode extension : CM (complete main)
Codec ID : A_AC3
Duration : 1h 43mn
Bit rate mode : Constant
Bit rate : 192 Kbps
Channel(s) : 2 channels
Channel positions : Front: L R
Sampling rate : 48.0 KHz
Bit depth : 16 bits
Compression mode : Lossy
Stream size : 142 MiB (10%)
Title : DVO
Language : Russian
Default : Yes
Forced : No

Audio #2
ID : 3
Format : AC-3
Format/Info : Audio Coding 3
Mode extension : CM (complete main)
Codec ID : A_AC3
Duration : 1h 43mn
Bit rate mode : Constant
Bit rate : 192 Kbps
Channel(s) : 2 channels
Channel positions : Front: L R
Sampling rate : 48.0 KHz
Bit depth : 16 bits
Compression mode : Lossy
Stream size : 142 MiB (10%)
Language : English
Default : No
Forced : No

Menu
00:00:00.000 : en:Chapter 01
00:03:57.934 : en:Chapter 02
00:08:12.101 : en:Chapter 03
00:10:14.935 : en:Chapter 04
00:17:19.803 : en:Chapter 05
00:20:27.437 : en:Chapter 06
00:24:07.271 : en:Chapter 07
00:29:28.771 : en:Chapter 08
00:33:26.938 : en:Chapter 09
00:35:31.938 : en:Chapter 10
00:43:34.305 : en:Chapter 11
00:48:08.605 : en:Chapter 12
00:52:49.638 : en:Chapter 13
00:57:39.439 : en:Chapter 14
01:03:36.106 : en:Chapter 15
01:05:35.440 : en:Chapter 16
01:12:15.473 : en:Chapter 17
01:15:08.107 : en:Chapter 18
01:21:49.774 : en:Chapter 19
01:24:53.274 : en:Chapter 20
01:29:31.274 : en:Chapter 21
01:32:24.774 : en:Chapter 22
01:36:49.274 : en:Chapter 23
01:41:21.808 : en:Chapter 24
01:43:34.908 : en:Chapter 25




Скачать Герцогиня.и.Драный.Лис.The.Duchess.and.the.Dirtwater.Fox.(Мелвин.Фрэнк).[1976.комедия.вестерн.DVDRip-AVC].[DVO]+[Оригинал].torrent без регистрации
Золото ЗОЛОТАЯ РАЗДАЧА! СКАЧАННОЕ НЕ ЗАСЧИТЫВАЕТСЯ! Золото
Дата: Зарегистрирован   [ Тип: внутренний ] Как тут cкачать?
MAGNET ссылка
MAGNET ссылка


Скачать .torrent

15 KB

Статус: проверено DHT
Скачан: торрент - 108 раз, раздача полностью - 27 раз
Размер: 1,45 GB
Оценка:  - (Голосов: 0)
Поблагодарили: 2
Поделиться ссылкой на эту раздачу с друзьями:
В контактеFacebookОдноклассникиTwitterLivejournalМой МирLiveinternet
 

 
Показать сообщения:    


Вы не можете начинать темы
Вы не можете отвечать на сообщения
Вы не можете редактировать свои сообщения
Вы не можете удалять свои сообщения
Вы не можете голосовать в опросах
Вы не можете прикреплять файлы к сообщениям
Вы можете скачивать файлы