Loading...
Error

Скачать Фанни и Александр / Fanny och Alexander [TV VERSION] (Ингмар Бергман) [1982, фэнтези, драма, детектив, BDRip-AVC] [MVO]+[Sub] торрент без регистрации

 
Статистика раздачи
Размер:  4,37 GB   |    Скачан:  114 раз
Сидов:  1  [  0 KB/s  ]  
 
Автор Сообщение

Marsianka

[] 

Фанни и Александр / Fanny och Alexander [TV VERSION] (1982) BDRip-AVC от PowerTracker

Жанр: фэнтези, драма, детектив
Страна: Швеция , Франция , Германия (ФРГ)
Режиссер: Ингмар Бергман
В ролях: Ева Фрёлинг, Бертиль Гуве, Аллан Эдвалль, Гунн Волльгрен, Пернилла Алльвин, Ярл Кулле, Эрланд Юсефсон, Гуннар Бьёрнстранд, Бёрье Альстедт, Мона Мальм

Сюжет фильма: После неожиданной смерти отца десятилетнего Александра и его сестры Фанни их мать выходит замуж за пастора. Из суматошного, светлого мира открытых чувств дети попадают в фарисейский, душный мир схоластически понятых религиозных догматов

История семьи Экдаль, увиденная глазами двух детей сестры и брата Фанни и Александра. Пока семья едина и неразлучна, дети счастливы и без страха могут предаваться чудесным мечтам. С потерей близких людей в них растет чувство горечи и неприязни к миру. Но там, где Фанни пытается сохранить чистую душу, Александр замыкается в темном и жестоком внутреннем мирке


Один из величайших фильмов европейского кино - творение великого Ингмара Бергмана.
4 Оскара, Золотой Глобус, БАФТА, СЕЗАР, Давид Донетелло, Фипресси Венецианского МКФ и много других премий.


Мировая премьера: 17 декабря 1982





Продолжительность: 4 части - 05:21:50 (общее время)
Качество видео: BDRip-AVC
Видео: кодек: x264, размер кадра: 1024х604, битрейт: 1750 кб/с, bit/pixel: 0.118
Аудио: язык: Русский , перевод: многоголосый закадровый (Видеоимпульс), кодек: AC3 2.0, битрейт: 192.00 кб/с
Субтитры: тип: вшитые отключаемые, формат: SRT, язык: Русский, Английский

&
Общее
Уникальный идентификатор : 254156275187732294895338496277059592519 (0xBF34B7D4FEC044BCBA0566768649E147)
Полное имя : D:Fanny and Alexander.1982.BDRip-AVC.PT.mkv
Формат : Matroska
Размер файла : 4,37 Гбайт
Продолжительность : 5 ч. 21 м.
Общий поток : 1944 Кбит/сек
Название фильма : Фанни и Александр / Fanny and Alexander [TV VERSION] (1982) BDRip-AVC rip by rulya74
Дата кодирования : UTC 2011-12-16 05:18:40
Программа кодирования : mkvmerge v4.8.0 ('I Got The...') сборка от May 31 2011 13:11:21
Библиотека кодирования : libebml v1.2.0 + libmatroska v1.1.0
Обложка : Yes

Видео
Идентификатор : 1
Формат : AVC
Формат/Информация : Advanced Video Codec
Профиль формата : High@L4.1
Параметр CABAC формата : Да
Параметр ReFrames формата : 7 кадров
Идентификатор кодека : V_MPEG4/ISO/AVC
Продолжительность : 5 ч. 21 м.
Битрейт : 1750 Кбит/сек
Ширина : 1024 пикс.
Высота : 604 пикс.
Соотношение сторон : 1,695
Частота кадров : 23,976 кадр/сек
Цветовое пространство : YUV
Подвыборка цветности : 4:2:0
Битовая глубина : 8 бит
Тип развёртки : Прогрессивная
Бит/(Пиксели*Кадры) : 0.118
Размер потока : 3,85 Гбайт (88%)
Библиотека кодирования : x264 core 116 r2074 2641b9e
Настройки программы : cabac=1 / ref=7 / deblock=1:-1:-1 / analyse=0x3:0x113 / me=umh / subme=9 / psy=1 / psy_rd=1.00:0.00 / mixed_ref=1 / me_range=32 / chroma_me=1 / trellis=2 / 8x8dct=1 / cqm=0 / deadzone=21,11 / fast_pskip=1 / chroma_qp_offset=-2 / threads=3 / sliced_threads=0 / nr=0 / decimate=1 / interlaced=0 / bluray_compat=0 / constrained_intra=0 / bframes=5 / b_pyramid=2 / b_adapt=1 / b_bias=0 / direct=1 / weightb=1 / open_gop=0 / weightp=2 / keyint=250 / keyint_min=23 / scenecut=40 / intra_refresh=0 / rc_lookahead=40 / rc=2pass / mbtree=1 / bitrate=1750 / ratetol=1.0 / qcomp=0.60 / qpmin=10 / qpmax=51 / qpstep=4 / cplxblur=20.0 / qblur=0.5 / ip_ratio=1.40 / aq=1:1.00
Язык : English

Аудио
Идентификатор : 2
Формат : AC-3
Формат/Информация : Audio Coding 3
Расширение режима : CM (complete main)
Идентификатор кодека : A_AC3
Продолжительность : 5 ч. 21 м.
Вид битрейта : Постоянный
Битрейт : 192 Кбит/сек
Каналы : 2 канала
Расположение каналов : Front: L R
Частота : 48,0 КГц
Битовая глубина : 16 бит
Метод сжатия : С потерями
Размер потока : 442 Мбайт (10%)
Заголовок : MVO - Видеоимпульс
Язык : Russian

Текст #1
Идентификатор : 3
Формат : UTF-8
Идентификатор кодека : S_TEXT/UTF8
Идентификатор кодека/Информация : UTF-8 Plain Text
Язык : Russian

Текст #2
Идентификатор : 4
Формат : UTF-8
Идентификатор кодека : S_TEXT/UTF8
Идентификатор кодека/Информация : UTF-8 Plain Text
Язык : English

Меню
00:00:00.000 : en:Chapter 1
00:08:04.400 : en:Chapter 2
00:13:44.781 : en:Chapter 3
00:20:17.883 : en:Chapter 4
00:23:40.292 : en:Chapter 5
00:28:11.188 : en:Chapter 6
00:36:49.373 : en:Chapter 7
00:42:39.556 : en:Chapter 8
00:51:09.315 : en:Chapter 9
00:55:26.031 : en:Chapter 10
01:03:06.908 : en:Chapter 11
01:11:10.390 : en:Chapter 12
01:16:21.952 : en:Chapter 13
01:25:10.563 : en:Chapter 14
01:29:56.140 : en:Chapter 15
01:33:12.962 : en:Chapter 16
01:36:13.184 : en:Chapter 17
01:43:41.465 : en:Chapter 18
01:51:54.999 : en:Chapter 19
02:00:49.825 : en:Chapter 20
02:03:32.071 : en:Chapter 21
02:10:02.669 : en:Chapter 22
02:14:34.983 : en:Chapter 23
02:22:54.399 : en:Chapter 24
02:33:15.436 : en:Chapter 25
02:39:26.723 : en:Chapter 26
02:43:15.494 : en:Chapter 27
02:51:33.616 : en:Chapter 28
02:54:34.297 : en:Chapter 29
03:01:23.247 : en:Chapter 30
03:08:40.683 : en:Chapter 31
03:10:44.140 : en:Chapter 32
03:17:28.503 : en:Chapter 33
03:27:56.672 : en:Chapter 34
03:32:31.738 : en:Chapter 35
03:36:00.614 : en:Chapter 36
03:44:58.735 : en:Chapter 37
03:51:47.476 : en:Chapter 38
03:54:47.323 : en:Chapter 39
04:04:48.882 : en:Chapter 40
04:07:50.689 : en:Chapter 41
04:16:08.311 : en:Chapter 42
04:32:00.345 : en:Chapter 43
04:35:38.687 : en:Chapter 44
04:39:57.864 : en:Chapter 45
04:47:07.627 : en:Chapter 46
04:49:03.325 : en:Chapter 47
04:54:51.673 : en:Chapter 48
04:59:00.964 : en:Chapter 49
05:02:11.446 : en:Chapter 50
05:10:10.967 : en:Chapter 51
05:15:55.061 : en:Chapter 52
05:18:50.611 : en:Chapter 53



Скачать Фанни.и.Александр.Fanny.och.Alexander.[TV.VERSION].(Ингмар.Бергман).[1982.фэнтези.драма.детектив.BDRip-AVC].[MVO]+[Sub].torrent без регистрации
Золото ЗОЛОТАЯ РАЗДАЧА! СКАЧАННОЕ НЕ ЗАСЧИТЫВАЕТСЯ! Золото
Дата: Зарегистрирован   [ Тип: внутренний ] Как тут cкачать?
MAGNET ссылка
MAGNET ссылка


Скачать .torrent

23 KB

Статус: проверено DHT
Скачан: торрент - 114 раз, раздача полностью - 16 раз
Размер: 4,37 GB
Оценка:  - (Голосов: 0)
Поблагодарили: 3
Поделиться ссылкой на эту раздачу с друзьями:
В контактеFacebookОдноклассникиTwitterLivejournalМой МирLiveinternet
 

 
Показать сообщения:    


Вы не можете начинать темы
Вы не можете отвечать на сообщения
Вы не можете редактировать свои сообщения
Вы не можете удалять свои сообщения
Вы не можете голосовать в опросах
Вы не можете прикреплять файлы к сообщениям
Вы можете скачивать файлы