Loading...
Error

Скачать Свадьба / Svadba (Радомир Шаранович) [1973, военный, драма, DVDRip] [Dub]+[Оригинал] торрент без регистрации

 
Статистика раздачи
Размер:  1,38 GB   |    Скачан:  104 раза
Сидов:  1  [  0 KB/s  ]  
 
Автор Сообщение

Marsianka

[] 

Страна: СССР, Югославия
Производство: Филмски-студио Титоград (Черногория), киностудия им.Довженко
Жанр: военный, драма
Год выпуска: 1973

Продолжительность: 01:28:31

Перевод: Дублированный

Оригинальная аудиодорожка: Сербский

Cубтитры: Нет

Режиссер: Радомир Шаранович

В ролях: Драгомир 'Гидра' Боянич, Владимир Попович, Зураб Капианидзе, Валентин Никулин, Михайло Янкетич, Вацлав Дворжецкий, Вася Станкович, Василий Симчич, Мило Миранович, Светлана Кнежевич, Чедо Вуканович, Александр Быструшкин, Михаил Голубович, Владимир Татосов, Леонид Бакштаев, Михаил Вашадзе, Абессалом Лория, Вахтанг Михелидзе, Иван Мокеев, Иосиф Гогичайшвили, Давит Чхиквадзе, Евгений Галушко



Описание: 1943 год. Эхо великих побед советской армии над гитлеровскими войсками разносилось по всему миру. В Югославии народно-освободительная армия наносила новые мощные удары по фашистким захватчикам и изменникам родины. В Черногории оккупанты и предатели-четники предпринимают отчаянные попытки задушить освободительную борьбу народа. Городская тюрьма небольшого черногорского городка. Здесь сталкиваются люди разных и сложных характеров: комиссар партизанского отряда Вукович, коммунист Лукач, отомстивший четникам за брата Тадия Чемеркич, сдавшийся в плен и тем самым спасший своих детей Драгушич. Героев объединяет общая цель - побег и продолжение борьбы с оккупантами...



Исходник: DVD5 R5

Тип релиза: DVDRip

Контейнер: AVI

Видео: 720x320 (2.25:1), 25 fps, DivX ~1800 kbps avg, 0.31 bit/pixel
Аудио: #1: 48 kHz, AC3 2.0 ~224.00 kbps avg (DUB)
Аудио: #2: 48 kHz, AC3 2.0 ~192.00 kbps avg (SER)
Общее
Полное имя : D:1АААсвадьба.avi
Формат : AVI
Формат/Информация : Audio Video Interleave
Размер файла : 1,38 Гбайт
Продолжительность : 1 ч. 28 м.
Общий поток : 2232 Кбит/сек
Программа кодирования : VirtualDubMod 1.5.10.2 (build 2540/release)
Библиотека кодирования : VirtualDubMod build 2540/release

Видео
Идентификатор : 0
Формат : MPEG-4 Visual
Параметр BVOP формата : 1
Параметр QPel формата : Нет
Параметр GMC формата : Без точки перехода
Параметр матрицы формата : Default (H.263)
Режим смешивания : Сжатый битовый поток
Идентификатор кодека : DX50
Идентификатор кодека/Подсказка : DivX 5
Продолжительность : 1 ч. 28 м.
Битрейт : 1801 Кбит/сек
Ширина : 720 пикселей
Высота : 320 пикселей
Соотношение сторон : 2,25:1
Частота кадров : 25,000 кадров/сек
Цветовое пространство : YUV
Субдискретизация насыщенности : 4:2:0
Битовая глубина : 8 бит
Тип развёртки : Прогрессивная
Метод сжатия : С потерями
Бит/(Пиксели*Кадры) : 0.313
Размер потока : 1,11 Гбайт (81%)
Библиотека кодирования : DivX 6.8.5 (UTC 2009-08-20)

Аудио #1
Идентификатор : 1
Формат : AC-3
Формат/Информация : Audio Coding 3
Расширение режима : CM (complete main)
Параметр Endianness формата : Big
Идентификатор кодека : 2000
Продолжительность : 1 ч. 28 м.
Вид битрейта : Постоянный
Битрейт : 224 Кбит/сек
Каналы : 2 канала
Расположение каналов : Front: L R
Частота : 48,0 КГц
Битовая глубина : 16 бит
Метод сжатия : С потерями
Размер потока : 142 Мбайт (10%)
Выравнивание : Соединение по промежуткам
Продолжительность промежутка : 40 мс. (1,00 видеокадр)
Время предзагрузки промежутка : 512 мс.

Аудио #2
Идентификатор : 2
Формат : AC-3
Формат/Информация : Audio Coding 3
Расширение режима : CM (complete main)
Параметр Endianness формата : Big
Идентификатор кодека : 2000
Продолжительность : 1 ч. 28 м.
Вид битрейта : Постоянный
Битрейт : 192 Кбит/сек
Каналы : 2 канала
Расположение каналов : Front: L R
Частота : 48,0 КГц
Битовая глубина : 16 бит
Метод сжатия : С потерями
Размер потока : 122 Мбайт (9%)
Выравнивание : Разделение по промежуткам
Продолжительность промежутка : 40 мс. (1,00 видеокадр)
Время предзагрузки промежутка : 500 мс.
Релиз:



Скачать Свадьба.Svadba.(Радомир.Шаранович).[1973.военный.драма.DVDRip].[Dub]+[Оригинал].torrent без регистрации
Золото ЗОЛОТАЯ РАЗДАЧА! СКАЧАННОЕ НЕ ЗАСЧИТЫВАЕТСЯ! Золото
Дата: Зарегистрирован   [ Тип: внутренний ] Как тут cкачать?
MAGNET ссылка
MAGNET ссылка


Скачать .torrent

14 KB

Статус: проверено DHT
Скачан: торрент - 104 раз, раздача полностью - 15 раз
Размер: 1,38 GB
Оценка:  - (Голосов: 0)
Поблагодарили: 2
Поделиться ссылкой на эту раздачу с друзьями:
В контактеFacebookОдноклассникиTwitterLivejournalМой МирLiveinternet
 

 
Показать сообщения:    


Вы не можете начинать темы
Вы не можете отвечать на сообщения
Вы не можете редактировать свои сообщения
Вы не можете удалять свои сообщения
Вы не можете голосовать в опросах
Вы не можете прикреплять файлы к сообщениям
Вы можете скачивать файлы