Loading...
Error

Скачать Призраки шляпника / Les fant¤mes du chapelier (Клод Шаброль) [1982, триллер, криминал, детектив, DVDRip-AVC] [VO]+[Sub] торрент без регистрации

 
Статистика раздачи
Размер:  1,86 GB   |    Скачан:  113 раз
Сидов:  1  [  0 KB/s  ]  
 
Автор Сообщение

Marsianka

[] 

Информация о фильме
Название: Призраки шляпника
Оригинальное название: Les fant¤mes du chapelier
Год выхода: 1982
Жанр: триллер, криминал, детектив
Режиссер: Клод Шаброль / Claude Chabrol
В ролях: Мишель Серро, Шарль Азнавур, Моник Шометт, Франсуа Клюзе, Изабель Садоян, Жан Шампьон, Бернар Дюмен, Виктор Гарривье, Жан Леврэ, Кристин Паолини

О фильме:
По одноименному роману Жоржа Сименона.
Пожалуй, одна из самых мрачных и интроспективных картин Клода Шаброля. Он в очередной раз обращается к своей излюбленной теме смертельная угроза под маской буржуазной респектабельности. Действие происходит в небольшом провинциальном городке на севере Франции. Постоянно идет дождь, практически все действия разворачиваются ночью, что подчеркивает тяжелую, удушающую атмосферу, поразительно напоминающую настроение романов Сименона.
Сюжет разворачивается вокруг двух мужчин, живущих напротив шляпника и портного. Каждый из них живет в собственном мире, но втайне завидует другому, их как магнитом тянет друг к другу. Что и приведет в итоге к трагическим событиям.
Мастерство Шаброля в психологическом жанре триллера дает ему возможность рассказать историю эффектно, несмотря на обманчиво простую операторскую работу и, на удивление, очень малое количество диалогов. Отдельно, хочется отметить прекрасный дуэт актеров Мишеля Серро и Шарля Азнавура, без которых вряд ли Шаброль смог достичь такого уровня сложности и глубины.



Страна: Франция
Студия: Philippe Grumbach Productions, S.F.P.C., Films A2
Продолжительность: 01:56:05
Перевод: Любительский одноголосный (dsz)

Файл
Кодек: h.264
Качество: DVDRip-AVC
Видео: 704x448 (1.658) @ 744x448 (анаморф), 25.000 fps, AVC, ~1905 Kbps, 0.242 bits/pixel
Звук:
1) Французский 48.0 KHz, AC3, 2 ch, 192 Kbps
2) Русский, 48.0 KHz, AC3, 2 ch, 192 Kbps
Субтитры: Русские, VobSub
Общее
Уникальный идентификатор : 253446131758875746951673175442342091179 (0xBEABF30EC8FE33A5B4736324160D19AB)
Полное имя : D:FilmsPrizraki_Shlyapnika.1982.DVDRip-AVC.mkv
Формат : Matroska
Версия формата : Version 4 / Version 2
Размер файла : 1,86 Гбайт
Продолжительность : 1 ч. 56 м.
Общий поток : 2291 Кбит/сек
Дата кодирования : UTC 2013-05-10 14:41:33
Программа кодирования : mkvmerge v6.2.0 ('Promised Land') built on Apr 28 2013 12:22:01
Библиотека кодирования : libebml v1.3.0 + libmatroska v1.4.0

Видео
Идентификатор : 1
Формат : AVC
Формат/Информация : Advanced Video Codec
Профиль формата : High@L4.1
Параметр CABAC формата : Да
Параметр ReFrames формата : 16 кадров
Идентификатор кодека : V_MPEG4/ISO/AVC
Продолжительность : 1 ч. 56 м.
Битрейт : 1905 Кбит/сек
Ширина : 704 пикселя
Высота : 448 пикселей
Соотношение сторон : 1,658
Соотношение сторон в оригинале : 1,660
Режим частоты кадров : Постоянный
Частота кадров : 25,000 кадров/сек
Цветовое пространство : YUV
Субдискретизация насыщенности : 4:2:0
Битовая глубина : 8 бит
Тип развёртки : Прогрессивная
Бит/(Пиксели*Кадры) : 0.242
Размер потока : 1,51 Гбайт (81%)
Библиотека кодирования : x264 core 130 r2273 b3065e6
Настройки программы : cabac=1 / ref=16 / deblock=1:0:0 / analyse=0x3:0x133 / me=umh / subme=10 / psy=1 / psy_rd=1.05:0.10 / mixed_ref=1 / me_range=32 / chroma_me=1 / trellis=2 / 8x8dct=1 / cqm=0 / deadzone=21,11 / fast_pskip=0 / chroma_qp_offset=-3 / threads=8 / lookahead_threads=2 / sliced_threads=0 / nr=0 / decimate=0 / interlaced=0 / bluray_compat=0 / constrained_intra=0 / bframes=11 / b_pyramid=2 / b_adapt=2 / b_bias=0 / direct=3 / weightb=1 / open_gop=0 / weightp=2 / keyint=250 / keyint_min=25 / scenecut=40 / intra_refresh=0 / rc=2pass / mbtree=0 / bitrate=1905 / ratetol=1.0 / qcomp=0.60 / qpmin=0 / qpmax=60 / qpstep=4 / cplxblur=20.0 / qblur=0.5 / ip_ratio=1.40 / pb_ratio=1.30 / aq=2:1.00
Default : Нет
Forced : Нет
Коэффициенты матрицы : BT.601

Аудио #1
Идентификатор : 2
Формат : AC-3
Формат/Информация : Audio Coding 3
Расширение режима : CM (complete main)
Параметр Endianness формата : Big
Идентификатор кодека : A_AC3
Продолжительность : 1 ч. 56 м.
Вид битрейта : Постоянный
Битрейт : 192 Кбит/сек
Каналы : 2 канала
Расположение каналов : Front: L R
Частота : 48,0 КГц
Битовая глубина : 16 бит
Метод сжатия : С потерями
Размер потока : 159 Мбайт (8%)
Язык : French
Default : Нет
Forced : Нет

Аудио #2
Идентификатор : 3
Формат : AC-3
Формат/Информация : Audio Coding 3
Расширение режима : CM (complete main)
Параметр Endianness формата : Big
Идентификатор кодека : A_AC3
Продолжительность : 1 ч. 56 м.
Вид битрейта : Постоянный
Битрейт : 192 Кбит/сек
Каналы : 2 канала
Расположение каналов : Front: L R
Частота : 48,0 КГц
Битовая глубина : 16 бит
Метод сжатия : С потерями
Размер потока : 159 Мбайт (8%)
Язык : Russian
Default : Да
Forced : Нет

Текст
Идентификатор : 4
Формат : VobSub
Режим смешивания : zlib
Идентификатор кодека : S_VOBSUB
Идентификатор кодека/Информация : The same subtitle format used on DVDs
Язык : Russian
Default : Нет
Forced : Нет

Меню
00:00:00.000 : en:Chapter 01
00:14:00.400 : en:Chapter 02
frame I:943 Avg QP:14.06 size: 52582
frame P:35101 Avg QP:16.77 size: 19814
frame B:138088 Avg QP:18.53 size: 6612
Исходный DVD5 от colt451 (R2 Rene Chateau + звук и титры от renege79). Спасибо!
Релиз от: Temperest



Скачать Призраки.шляпника.Les.fant¤mes.du.chapelier.(Клод.Шаброль).[1982.триллер.криминал.детектив.DVDRip-AVC].[VO]+[Sub].torrent без регистрации
Золото ЗОЛОТАЯ РАЗДАЧА! СКАЧАННОЕ НЕ ЗАСЧИТЫВАЕТСЯ! Золото
Дата: Зарегистрирован   [ Тип: внутренний ] Как тут cкачать?
MAGNET ссылка
MAGNET ссылка


Скачать .torrent

19 KB

Статус: проверено DHT
Скачан: торрент - 113 раз, раздача полностью - 7 раз
Размер: 1,86 GB
Оценка:  - (Голосов: 0)
Поблагодарили: 3
Поделиться ссылкой на эту раздачу с друзьями:
В контактеFacebookОдноклассникиTwitterLivejournalМой МирLiveinternet
 

 
Показать сообщения:    


Вы не можете начинать темы
Вы не можете отвечать на сообщения
Вы не можете редактировать свои сообщения
Вы не можете удалять свои сообщения
Вы не можете голосовать в опросах
Вы не можете прикреплять файлы к сообщениям
Вы можете скачивать файлы