Loading...
Error

Скачать Библия / The Bible (сезон 1, серии 1-10 из 10) (Криспин Рис, Тони Митчелл, Кристофер Спенсер) [2013, Библейский сюжет, историческая драма, религия, христианство, экранизация, HDTVRip-AVC, BDRip-AVC 1080p] [DD5.1] [MVO] [Baibako] торрент без регистрации

 
Статистика раздачи
Размер:  22,46 GB   |    Скачан:  231 раз
Сидов:  1  [  0 KB/s  ]  
 
Автор Сообщение

Nikolai.Baranov

[] 



Библия / The Bible




Год выпуска: 2013
Выпущено: США , LightWorkers Media
Жанр: Библейский сюжет, историческая драма, религия, христианство, экранизация
Продолжительность: 00:45:00
Сезон: 1
Серии: 1-10
Количество серий в сезоне: 10
Озвучка:Профессиональная многоголосая закадровая(Baibako)Лира Грим, Ольга Мотрич, Сергей Корчак и Виталий Ткаченко
Субтитры: Нет



Режиссер: Криспин Рис, Тони Митчелл, Кристофер Спенсер

В ролях: Кит Дэвид, Диого Моргадо, Дауд Шах, Пол Брайтвелл, Рома Дауни, Грег Хикс, Эндрю Скарборо, Себастьян Кнапп, Эмбер Роуз Рева, Адриан Шиллер, Эндрю Брук, Луиз Деламер

Самая масштабная экранизация библейских сюжетов, как утверждают авторы, снята в духе современных исторических сериалов c добавлением к живым сценам - компьютерной графики. Истории о Ноевом ковчеге, исходе из Египта под предводительством Моисея, рождении, смерти и воскресении Иисуса. Сериал состоит из 10 ключевых повествований. Начиная от книги Бытие и заканчивая книгой Откровение. Воссоздать и снять истории Ветхого и Нового заветов решился 43-летний британский продюсер Марк Барнетт с супругой. Съемки стоимостью в 22 миллиона долларов прошли на Ближнем Востоке и собрали актеров со всего мира (Самсон из африканской диаспоры, Давид из Ирландии, Иисус из Португалии, и т.д.). В качестве консультантов были привлечены десятки пасторов и ученых.

Качество : HDTVRip-AVC, BDRip-AVC 1080p
Формат: MPEG-4
Видео кодек: H264
Видео: 6249Кбит/сек,1920х1080(16.9),в 25.000кадр/сек,AVC(Baseline@L5.0)(1Ref Frames)
Аудио кодек: AAC
Аудио Russian Dolby Digital 5.1:456Кбит/сек,44.1КГц,6каналов,AAC,(Version4)(LC)


Звуковая дорожка сделана путем наложения чистого голоса озвучивателей на центральный канал оригинальной дорожки. Качество идентично звуковой дорожке.



Эпизод 01 In the Beginning / В Начале
Эпизод 02 Exodus / Исход
Эпизод 03 Homeland / Земля Обетованная
Эпизод 04 Kingdom / Царство
Эпизод 05 Survival / Выживание
Эпизод 06 Hope / Надежда
Эпизод 07 Mission / Миссия
Эпизод 08 Betrayal / Предательство
Эпизод 09 Passion / Страсть
Эпизод 10 Courage / Мужество



Общее
Полное имя : D:\И С Т О Р И Ч Е С К И Е\The_Bible_2013_S01_RUS[BaibaKo_TV]_DD5.1_x264_Nikolai.Baranov_HDTVRip-AVC_ВDRip-AVC_(1080p)\The_Bible_2013_S01E01_RUS[BaibaKo_TV]_DD5.1_x264_Nikolai.Baranov_ВDRip-AVC_(1080p).mp4
Формат : MPEG-4
Профиль формата : Base Media
Идентификатор кодека : isom
Размер файла : 2,23 Гбайт
Продолжительность : 47 м.
Режим общего битрейта : Переменный
Общий поток : 6709 Кбит/сек
Дата кодирования : UTC 2013-05-06 19:00:23
Дата пометки : UTC 2013-05-06 19:00:23
Программа кодирования : Lavf51.12.1

Видео
Идентификатор : 1
Формат : AVC
Формат/Информация : Advanced Video Codec
Профиль формата : Baseline@L5.0
Параметр CABAC формата : Нет
Параметр ReFrames формата : 1 кадр
Параметр GOP формата : M=1, N=12
Идентификатор кодека : avc1
Идентификатор кодека/Информация : Advanced Video Coding
Продолжительность : 47 м.
Вид битрейта : Переменный
Битрейт : 6249 Кбит/сек
Максимальный битрейт : 9000 Кбит/сек
Ширина : 1920 пикселей
Высота : 1080 пикселей
Соотношение сторон : 16:9
Режим частоты кадров : Постоянный
Частота кадров : 25,000 кадров/сек
Частота кадров в оригинале : 24,000 кадра/сек
Цветовое пространство : YUV
Субдискретизация насыщенности : 4:2:0
Битовая глубина : 8 бит
Тип развёртки : Прогрессивная
Бит/(Пиксели*Кадры) : 0.121
Размер потока : 2,08 Гбайт (93%)
Дата кодирования : UTC 2013-05-06 19:00:23
Дата пометки : UTC 2013-05-06 19:00:23

Аудио
Идентификатор : 2
Формат : AAC
Формат/Информация : Advanced Audio Codec
Профиль формата : LC
Идентификатор кодека : 40
Продолжительность : 47 м.
Вид битрейта : Переменный
Битрейт : 456 Кбит/сек
Каналы : 6 каналов
Расположение каналов : Front: L C R, Side: L R, LFE
Частота : 44,1 КГц
Метод сжатия : С потерями
Размер потока : 155 Мбайт (7%)
Дата кодирования : UTC 2013-05-06 19:00:23
Дата пометки : UTC 2013-05-06 19:00:23








1. Открыть торрент
2. Снять галки с тех файлов торрента, которые мы не хотим закачивать. Оставляем только на нужных нам файлах (файле).
3. Нажать О.К.

В клиенте utorrent

Инструкция

1) Открыть торрент


2) Снять галки с тех файлов торрента, которые мы не хотим закачивать:

* либо вручную, снимая с каждого файла галку( скрин №1)
* либо, нажав кнопку "Снять метки (Select None)", сняв сразу со всех файлов(скрин №2)
№1

№2

Оставляем только на нужных нам файлах (файле).

3)Нажать О.К


Внимание!!! 06.06. 2013. РАЗДАЧА ОБНОВЛЕНА.ФИНАЛ СЕЗОНА.ОБНОВИТЕ ТОРЕНТ ФАЙЛ.ПРИЯТНОГО ПРОСМОТРА.

Релиз от: Nikolai.Baranov










Скачать Библия.The.Bible.(сезон.1.серии.1-10.из.10).(Криспин.Рис.Тони.Митчелл.Кристофер.Спенсер).[2013.Библейский.сюжет.историческая.драма.религия.христианство.экранизация.HDTVRip-AVC.BDRip-AVC.1080p].[DD5.1].[MVO].[Baibako].torrent без регистрации
Золото ЗОЛОТАЯ РАЗДАЧА! СКАЧАННОЕ НЕ ЗАСЧИТЫВАЕТСЯ! Золото
Дата: Зарегистрирован   [ Тип: внутренний ] Как тут cкачать?
MAGNET ссылка
MAGNET ссылка


Скачать .torrent

58 KB

Статус: проверено DHT
Скачан: торрент - 231 раз, раздача полностью - 104 раз
Размер: 22,46 GB
Оценка:  5 (Голосов: 1)
Поблагодарили: 7
Поделиться ссылкой на эту раздачу с друзьями:
В контактеFacebookОдноклассникиTwitterLivejournalМой МирLiveinternet
 

 
Показать сообщения:    


Вы не можете начинать темы
Вы не можете отвечать на сообщения
Вы не можете редактировать свои сообщения
Вы не можете удалять свои сообщения
Вы не можете голосовать в опросах
Вы не можете прикреплять файлы к сообщениям
Вы можете скачивать файлы