Loading...
Error

Скачать Интернэшнл / The International (Том Тыквер) [2008, боевик, триллер, криминал, детектив, BDRip-AVC] торрент без регистрации

 
Статистика раздачи
Размер:  2,1 GB   |    Скачан:  120 раз

Полного источника не было: 25 минут

 
Автор Сообщение

МихаНЕзатор

[] 

Страна: США, Германия, Великобритания
Жанр: боевик, триллер, криминал, детектив
Год выпуска: 2008
Продолжительность: 01:58:02
Перевод: Профессиональный (полное дублирование) + Оригинальный
Субтитры: русские (надписи и пр.), русские, английские
Режиссер: Том Тыквер / Tom Tykwer
В ролях: Клайв Оуэн (Louis Salinger), Наоми Уоттс (Eleanor Whitman), Армин Мюллер-Шталь (Wilhelm Wexler), Ульрих Томсен (Jonas Skarssen), Брайан Ф. ОБирн (The Consultant), Майкл Волетти (Viktor Haas), Патрик Балади (Martin White), Джей Вильерс (Francis Ehames), Фабрис Скотт (Nicolai Yeshinski), Халук Бильгинер (Ahmet Sunay), Лука Барбарески (Umberto Calvini), Алессандро Фабрици (Inspector Alberto Cerutti)
Дублёры: Валерий Соловьев (Louis Salinger), Мария Цветкова-Овсянникова (Eleanor Whitman), Виктор Костецкий (Wilhelm Wexler), Анатолий Петров (Jonas Skarssen), Иван Паршин (The Consultant), Дмитрий Витов (Martin White), Борис Смолкин (Ahmet Sunay), Евгений Ганелин (Inspector Alberto Cerutti), Алексей Гурьев (Detective Bernie Ward), Юрий Герцман (Dr. Isaacson), Юрий Лазарев (New York D.A.), Сергей Паршин (Klaus Diemer)
Описание: Перед Агентом Интерпола Льюис Сэлинджером и ассистентом по юридическим вопросам Элеонор Витман поставлена задача предать правосудию один из наиболее могущественных банков мира. Собирая доказательства нелегальных операций, включая отмывание денег, торговлю оружием, вплоть до дестабилизации правительственных структур, агенты проводят расследование от Берлина до Милана, от Нью-Йорка до Стамбула. Оказавшись в эпицентре игры по-крупному, непреклонная настойчивость и жажда справедливости вынуждают их поставить на карту все, в том числе собственные жизни. Ведь банк не остановится ни перед чем даже перед убийством чтобы продолжить финансирование войны и террора. Но банк лишь вершина айсберга в глобальной коррупционной системе
MPAA: R - Лицам до 17 лет обязательно присутствие взрослого

Качество: BDRip
Контейнер: MKV

Видео: AVC, 1024x426 (2.40:1), 1902 kbps, 23.976 fps, 0.182 bpp
Аудио 1: русский / AC3 / 5.1 / 48 kHz / 448 kbps
Аудио 2: английский / AC3 / 2.0 / 48 kHz / 192 kbps
Навигация по главам: есть

General
Unique ID : 211680180723943784074103164968850122631 (0x9F401EAFBB576BA799CBC2B28D7B6787)
Complete name : C:TorrentInternational.BDRipAVC.mkv
Format : Matroska
Format version : Version 2
File size : 2.10 GiB
Duration : 1h 58mn
Overall bit rate : 2 544 Kbps
Movie name : = Интернэшнл / The International BDRip by SC Kosmos =
Encoded date : UTC 2013-05-11 08:13:29
Writing application : mkvmerge v3.3.0 ('Language') gebaut am Mar 24 2010 14:59:24
Writing library : libebml v0.8.0 + libmatroska v0.9.0

Video
ID : 1
Format : AVC
Format/Info : Advanced Video Codec
Format profile : High@L4.1
Format settings, CABAC : Yes
Format settings, ReFrames : 12 frames
Codec ID : V_MPEG4/ISO/AVC
Duration : 1h 58mn
Bit rate : 1 902 Kbps
Width : 1 024 pixels
Height : 426 pixels
Display aspect ratio : 2.40:1
Frame rate : 23.976 fps
Color space : YUV
Chroma subsampling : 4:2:0
Bit depth : 8 bits
Scan type : Progressive
Bits/(Pixel*Frame) : 0.182
Stream size : 1.53 GiB (73%)
Title : Интернэшнл / The International BDRip by SC Kosmos
Writing library : x264 core 132 r2310 76a5c3a
Encoding settings : cabac=1 / ref=12 / deblock=1:-2:-3 / analyse=0x3:0x112 / me=umh / subme=10 / psy=1 / psy_rd=1.00:0.15 / mixed_ref=1 / me_range=32 / chroma_me=1 / trellis=2 / 8x8dct=1 / cqm=0 / deadzone=21,11 / fast_pskip=1 / chroma_qp_offset=-3 / threads=12 / lookahead_threads=1 / sliced_threads=0 / nr=0 / decimate=1 / interlaced=0 / bluray_compat=0 / constrained_intra=0 / bframes=9 / b_pyramid=2 / b_adapt=1 / b_bias=0 / direct=3 / weightb=1 / open_gop=0 / weightp=1 / keyint=240 / keyint_min=23 / scenecut=40 / intra_refresh=0 / rc_lookahead=40 / rc=2pass / mbtree=0 / bitrate=1902 / ratetol=1.0 / qcomp=0.60 / qpmin=0 / qpmax=69 / qpstep=4 / cplxblur=20.0 / qblur=0.5 / vbv_maxrate=62500 / vbv_bufsize=78125 / nal_hrd=none / ip_ratio=1.40 / pb_ratio=1.30 / aq=1:1.00 / zones=161810,169799,b=0.27
Language : English
Default : No
Forced : No

Audio #1
ID : 2
Format : AC-3
Format/Info : Audio Coding 3
Mode extension : CM (complete main)
Codec ID : A_AC3
Duration : 1h 58mn
Bit rate mode : Constant
Bit rate : 448 Kbps
Channel(s) : 6 channels
Channel positions : Front: L C R, Side: L R, LFE
Sampling rate : 48.0 KHz
Bit depth : 16 bits
Compression mode : Lossy
Stream size : 378 MiB (18%)
Language : Russian
Default : Yes
Forced : No

Audio #2
ID : 3
Format : AC-3
Format/Info : Audio Coding 3
Mode extension : CM (complete main)
Codec ID : A_AC3
Duration : 1h 58mn
Bit rate mode : Constant
Bit rate : 192 Kbps
Channel(s) : 2 channels
Channel positions : Front: L R
Sampling rate : 48.0 KHz
Bit depth : 16 bits
Compression mode : Lossy
Stream size : 162 MiB (8%)
Language : English
Default : No
Forced : No

Text #1
ID : 4
Format : UTF-8
Codec ID : S_TEXT/UTF8
Codec ID/Info : UTF-8 Plain Text
Title : надписи и пр.
Language : Russian
Default : Yes
Forced : No

Text #2
ID : 5
Format : UTF-8
Codec ID : S_TEXT/UTF8
Codec ID/Info : UTF-8 Plain Text
Language : Russian
Default : No
Forced : No

Text #3
ID : 6
Format : UTF-8
Codec ID : S_TEXT/UTF8
Codec ID/Info : UTF-8 Plain Text
Language : English
Default : No
Forced : No

Menu
00:00:00.000 : en:Chapter 01
00:00:45.295 : en:Chapter 02
00:04:20.802 : en:Chapter 03
00:06:43.319 : en:Chapter 04
00:13:15.419 : en:Chapter 05
00:16:03.545 : en:Chapter 06
00:22:35.479 : en:Chapter 07
00:30:34.874 : en:Chapter 08
00:40:22.086 : en:Chapter 09
00:42:48.399 : en:Chapter 10
00:48:35.078 : en:Chapter 11
00:53:22.991 : en:Chapter 12
00:55:53.975 : en:Chapter 13
01:05:44.649 : en:Chapter 14
01:08:21.263 : en:Chapter 15
01:22:19.142 : en:Chapter 16
01:27:39.837 : en:Chapter 17
01:33:56.339 : en:Chapter 18
01:38:54.970 : en:Chapter 19
01:41:34.129 : en:Chapter 20
01:44:55.080 : en:Chapter 21

----------------------------------------------------
x264 [info]: frame I:2296 Avg QP:19.08 size: 59918
x264 [info]: frame P:87662 Avg QP:22.51 size: 13750
x264 [info]: frame B:79842 Avg QP:23.57 size: 4269
----------------------------------------------------



Скачать Интернэшнл.The.International.(Том.Тыквер).[2008.боевик.триллер.криминал.детектив.BDRip-AVC].torrent без регистрации
Золото ЗОЛОТАЯ РАЗДАЧА! СКАЧАННОЕ НЕ ЗАСЧИТЫВАЕТСЯ! Золото
Дата: Зарегистрирован   [ Тип: внутренний ] Как тут cкачать?
MAGNET ссылка
MAGNET ссылка


Скачать .torrent

11 KB

Статус: проверено DHT
Скачан: торрент - 120 раз, раздача полностью - 11 раз
Размер: 2,1 GB
Оценка:  5 (Голосов: 1)
Поблагодарили: 2
Поделиться ссылкой на эту раздачу с друзьями:
В контактеFacebookОдноклассникиTwitterLivejournalМой МирLiveinternet
 

 
Показать сообщения:    


Вы не можете начинать темы
Вы не можете отвечать на сообщения
Вы не можете редактировать свои сообщения
Вы не можете удалять свои сообщения
Вы не можете голосовать в опросах
Вы не можете прикреплять файлы к сообщениям
Вы можете скачивать файлы