Loading...
Error

Скачать Бензин, еда, жилье / Gas, Food Lodging (Эллисон Андерс) [1992, драма, мелодрама, DVDRip-AVC] [MVO]+[Sub] торрент без регистрации

 
Статистика раздачи
Размер:  1,74 GB   |    Скачан:  109 раз
Сидов:  1  [  0 KB/s  ]  
 
Автор Сообщение

Marsianka

[] 

Информация о фильме
Название: Бензин, еда, жилье
Оригинальное название: Gas, Food Lodging
Год выхода: 1992
Жанр: драма, мелодрама
Режиссер: Эллисон Андерс
В ролях: Брук Адамс, Иона Скай, Файруза Болк, Роберт Кнэппер, Дэвид Лэндсбери, Крис Малки, Донован Лейтч, Джулия Kондра, Джейкоб Варгас, Лори О`Брайен, Адам Байеск, Джеймс Бролин

О фильме:
По роману Ричарда Пека "Не смотри и не будет больно". Нора работает официанткой и одна воспитывает двух дочерей. Младшая Шейд - милая, скромная девочка, всё свободное время проводит в кинотеатре. Старшая Труди - грубая и резкая, мечтает вырваться из того места, в котором живёт. Однажды Труди знакомится с приезжим парнем.

Номинация на премию "Золотой медведь" на Берлинском кинофестивале 1992 года. Премия "Независимый дух" за женскую роль и и премия критиков на МКФ в Довиле.




Страна: США
Студия: Cineville
Продолжительность: 01:41:19
Перевод: Профессиональный (многоголосый, закадровый) 1 канал

Файл
Кодек: h.264
Качество: DVDRip-AVC
Видео: 720x464 (1.85:1) @ 846x464 (анаморф), 23.976 fps, AVC, ~2130 Kbps, 0.266 bits/pixel
Звук:
1) Английский, 48.0 KHz, AC3, 2 ch, 192 Kbps
2) Русский, 48.0 KHz, AC3, 2 ch, 128 Kbps
Субтитры: Английские, VobSub
Общее
Уникальный идентификатор : 205642470977454054141297209188909693008 (0x9AB54C9CEA20A90880097FB156C5B850)
Полное имя : D:FilmsBenzin_Eda_Zhilye.1992.DVDRip-AVC.mkv
Формат : Matroska
Версия формата : Version 4 / Version 2
Размер файла : 1,74 Гбайт
Продолжительность : 1 ч. 41 м.
Общий поток : 2452 Кбит/сек
Дата кодирования : UTC 2013-05-11 08:30:45
Программа кодирования : mkvmerge v6.2.0 ('Promised Land') built on Apr 28 2013 12:22:01
Библиотека кодирования : libebml v1.3.0 + libmatroska v1.4.0

Видео
Идентификатор : 1
Формат : AVC
Формат/Информация : Advanced Video Codec
Профиль формата : High@L4.1
Параметр CABAC формата : Да
Параметр ReFrames формата : 16 кадров
Идентификатор кодека : V_MPEG4/ISO/AVC
Продолжительность : 1 ч. 41 м.
Битрейт : 2130 Кбит/сек
Ширина : 720 пикселей
Высота : 464 пикселя
Соотношение сторон : 1,85:1
Соотношение сторон в оригинале : 1,85:1
Режим частоты кадров : Постоянный
Частота кадров : 23,976 кадра/сек
Цветовое пространство : YUV
Субдискретизация насыщенности : 4:2:0
Битовая глубина : 8 бит
Тип развёртки : Прогрессивная
Бит/(Пиксели*Кадры) : 0.266
Размер потока : 1,47 Гбайт (85%)
Библиотека кодирования : x264 core 130 r2273 b3065e6
Настройки программы : cabac=1 / ref=16 / deblock=1:0:0 / analyse=0x3:0x133 / me=umh / subme=10 / psy=1 / psy_rd=1.05:0.10 / mixed_ref=1 / me_range=32 / chroma_me=1 / trellis=2 / 8x8dct=1 / cqm=0 / deadzone=21,11 / fast_pskip=0 / chroma_qp_offset=-3 / threads=8 / lookahead_threads=2 / sliced_threads=0 / nr=0 / decimate=0 / interlaced=0 / bluray_compat=0 / constrained_intra=0 / bframes=12 / b_pyramid=2 / b_adapt=2 / b_bias=0 / direct=3 / weightb=1 / open_gop=0 / weightp=2 / keyint=240 / keyint_min=23 / scenecut=40 / intra_refresh=0 / rc=2pass / mbtree=0 / bitrate=2130 / ratetol=1.0 / qcomp=0.60 / qpmin=0 / qpmax=60 / qpstep=4 / cplxblur=20.0 / qblur=0.5 / ip_ratio=1.40 / pb_ratio=1.30 / aq=2:1.00
Default : Нет
Forced : Нет
Коэффициенты матрицы : BT.601

Аудио #1
Идентификатор : 2
Формат : AC-3
Формат/Информация : Audio Coding 3
Профиль формата : Dolby Digital
Расширение режима : CM (complete main)
Параметр Endianness формата : Big
Идентификатор кодека : A_AC3
Продолжительность : 1 ч. 41 м.
Вид битрейта : Постоянный
Битрейт : 192 Кбит/сек
Каналы : 2 канала
Расположение каналов : Front: L R
Частота : 48,0 КГц
Битовая глубина : 16 бит
Метод сжатия : С потерями
Размер потока : 139 Мбайт (8%)
Язык : English
Default : Нет
Forced : Нет

Аудио #2
Идентификатор : 3
Формат : AC-3
Формат/Информация : Audio Coding 3
Расширение режима : CM (complete main)
Параметр Endianness формата : Big
Идентификатор кодека : A_AC3
Продолжительность : 1 ч. 41 м.
Вид битрейта : Постоянный
Битрейт : 128 Кбит/сек
Каналы : 2 канала
Расположение каналов : Front: L R
Частота : 48,0 КГц
Битовая глубина : 16 бит
Метод сжатия : С потерями
Размер потока : 92,8 Мбайт (5%)
Язык : Russian
Default : Да
Forced : Нет

Текст
Идентификатор : 4
Формат : VobSub
Режим смешивания : zlib
Идентификатор кодека : S_VOBSUB
Идентификатор кодека/Информация : The same subtitle format used on DVDs
Язык : English
Default : Нет
Forced : Нет

Меню
00:00:00.000 : en:Chapter 01
00:02:20.868 : en:Chapter 02
00:05:10.802 : en:Chapter 03
00:09:41.069 : en:Chapter 04
00:13:33.202 : en:Chapter 05
00:15:33.836 : en:Chapter 06
00:16:47.470 : en:Chapter 07
00:19:18.304 : en:Chapter 08
00:21:32.538 : en:Chapter 09
00:23:19.538 : en:Chapter 10
00:28:55.372 : en:Chapter 11
00:32:35.173 : en:Chapter 12
00:35:51.540 : en:Chapter 13
00:40:02.074 : en:Chapter 14
00:43:23.174 : en:Chapter 15
00:47:21.341 : en:Chapter 16
00:49:01.808 : en:Chapter 17
00:51:58.008 : en:Chapter 18
00:54:57.375 : en:Chapter 19
01:00:15.642 : en:Chapter 20
01:09:38.243 : en:Chapter 21
01:10:46.810 : en:Chapter 22
01:15:58.877 : en:Chapter 23
01:20:30.311 : en:Chapter 24
01:27:56.511 : en:Chapter 25
01:29:16.711 : en:Chapter 26
01:30:57.545 : en:Chapter 27
01:34:46.979 : en:Chapter 28
frame I:874 Avg QP:14.33 size: 44324
frame P:25497 Avg QP:17.10 size: 19470
frame B:119389 Avg QP:18.86 size: 9066
Исходник - R1 + синхр. дорожка с SATRip (1 канал)
Релиз от: Temperest



Скачать Бензин.еда.жилье.Gas.Food.Lodging.(Эллисон.Андерс).[1992.драма.мелодрама.DVDRip-AVC].[MVO]+[Sub].torrent без регистрации
Золото ЗОЛОТАЯ РАЗДАЧА! СКАЧАННОЕ НЕ ЗАСЧИТЫВАЕТСЯ! Золото
Дата: Зарегистрирован   [ Тип: внутренний ] Как тут cкачать?
MAGNET ссылка
MAGNET ссылка


Скачать .torrent

18 KB

Статус: проверено DHT
Скачан: торрент - 109 раз, раздача полностью - 0 раз
Размер: 1,74 GB
Оценка:  - (Голосов: 0)
Поблагодарили: 1
Поделиться ссылкой на эту раздачу с друзьями:
В контактеFacebookОдноклассникиTwitterLivejournalМой МирLiveinternet
 

 
Показать сообщения:    


Вы не можете начинать темы
Вы не можете отвечать на сообщения
Вы не можете редактировать свои сообщения
Вы не можете удалять свои сообщения
Вы не можете голосовать в опросах
Вы не можете прикреплять файлы к сообщениям
Вы можете скачивать файлы