Loading...
Error

Скачать Очень грязные танцы / ProSieben FunnyMovie - D¦rte's Dancing (Энди Нисснер) [2008, комедия, пародия, DVDRip] [DVO]+[Оригинал] торрент без регистрации

 
Статистика раздачи
Размер:  1,38 GB   |    Скачан:  115 раз
Сидов:  1  [  0 KB/s  ]  
 
Автор Сообщение

Marsianka

[] 

Очень грязные танцы / ProSieben FunnyMovie - D¦rte's Dancing

Страна: Германия
Жанр: комедия, пародия
Год выпуска: 2008
Продолжительность: 01:10:49

Перевод: Профессиональный (двухголосый закадровый)
Cубтитры: нет
Оригинальная аудиодорожка: немецкий

Режиссер: Энди Нисснер / Andi Niessner

В ролях: Жаннет Бидерманн, Свен Васнер, Том Бек, Ева-Мария Грейн, Гюнтер Бартон, Соня Краус, Оливер Пецокат

Описание: Дорти и ее парень едут отдохнуть в Вирджинию - место, где снимался любимый фильм Дорти "Грязные танцы". Но по дороге случается непредвиденное - они попадают в автомобильную аварию. Очнувшись, Дорти обнаруживает, что очутилась... в своем любимом фильме! Но кто - то, похоже, слегка подправил сценарий...



Качество видео: DVDRip
Формат видео: AVI

Видео: XviD, 720x400, 2400 Kbps, 25 fps
Аудио 1: AC3, 48000 Hz, 192 Kbps, 2.0 ch - русская
Аудио 2: AC3, 48000 Hz, 192 Kbps, 2.0 ch - немецкая

General
Complete name : C:Ochen.Gryaznye.Tancy.2008.DVDRip.avi
Format : AVI
Format/Info : Audio Video Interleave
File size : 1.38 GiB
Duration : 1h 10mn
Overall bit rate : 2 799 Kbps
Writing application : VirtualDubMod 1.5.10.3 | www.virtualdub-fr.org || (build 2550/release)
Writing library : VirtualDubMod build 2550/release

Video
ID : 0
Format : MPEG-4 Visual
Format profile : Advanced Simple@L5
Format settings, BVOP : 1
Format settings, QPel : No
Format settings, GMC : No warppoints
Format settings, Matrix : Custom
Codec ID : DX50
Codec ID/Hint : DivX 5
Duration : 1h 10mn
Bit rate : 2 400 Kbps
Width : 720 pixels
Height : 400 pixels
Display aspect ratio : 16:9
Frame rate : 25.000 fps
Color space : YUV
Chroma subsampling : 4:2:0
Bit depth : 8 bits
Scan type : Progressive
Compression mode : Lossy
Bits/(Pixel*Frame) : 0.333
Stream size : 1.19 GiB (86%)
Writing library : XviD 73

Audio #1
ID : 1
Format : AC-3
Format/Info : Audio Coding 3
Mode extension : CM (complete main)
Format settings, Endianness : Big
Codec ID : 2000
Duration : 1h 10mn
Bit rate mode : Constant
Bit rate : 192 Kbps
Channel(s) : 2 channels
Channel positions : Front: L R
Sampling rate : 48.0 KHz
Bit depth : 16 bits
Compression mode : Lossy
Stream size : 97.3 MiB (7%)
Alignment : Split accross interleaves
Interleave, duration : 40 ms (1.00 video frame)
Interleave, preload duration : 500 ms

Audio #2
ID : 2
Format : AC-3
Format/Info : Audio Coding 3
Mode extension : CM (complete main)
Format settings, Endianness : Big
Codec ID : 2000
Duration : 1h 10mn
Bit rate mode : Constant
Bit rate : 192 Kbps
Channel(s) : 2 channels
Channel positions : Front: L R
Sampling rate : 48.0 KHz
Bit depth : 16 bits
Compression mode : Lossy
Stream size : 97.3 MiB (7%)
Alignment : Split accross interleaves
Interleave, duration : 40 ms (1.00 video frame)
Interleave, preload duration : 500 ms



Скачать Очень.грязные.танцы.ProSieben.FunnyMovie.-.D¦rte's.Dancing.(Энди.Нисснер).[2008.комедия.пародия.DVDRip].[DVO]+[Оригинал].torrent без регистрации
Золото ЗОЛОТАЯ РАЗДАЧА! СКАЧАННОЕ НЕ ЗАСЧИТЫВАЕТСЯ! Золото
Дата: Зарегистрирован   [ Тип: внутренний ] Как тут cкачать?
MAGNET ссылка
MAGNET ссылка


Скачать .torrent

14 KB

Статус: проверено DHT
Скачан: торрент - 115 раз, раздача полностью - 9 раз
Размер: 1,38 GB
Оценка:  - (Голосов: 0)
Поблагодарили: 2
Поделиться ссылкой на эту раздачу с друзьями:
В контактеFacebookОдноклассникиTwitterLivejournalМой МирLiveinternet
 

 
Показать сообщения:    


Вы не можете начинать темы
Вы не можете отвечать на сообщения
Вы не можете редактировать свои сообщения
Вы не можете удалять свои сообщения
Вы не можете голосовать в опросах
Вы не можете прикреплять файлы к сообщениям
Вы можете скачивать файлы