Loading...
Error

Скачать Дом 2: Проклятая обитель / House II: The Second Story (Этан Уайли) [1987 г., ужасы, фэнтези, комедия, DVDRip-AVC] [MVO] торрент без регистрации

 
Статистика раздачи
Размер:  2,18 GB   |    Скачан:  128 раз
Сидов:  1  [  0 KB/s  ]  
 
Автор Сообщение

durik

[] 

Дом 2: Проклятая обитель / House II: The Second Story

Название: Дом 2: Проклятая обитель
Оригинальное название: House II: The Second Story
Год выхода: 1987
Жанр: ужасы, фэнтези, комедия
Режиссер: Этан Уайли
В ролях: Ари Гросс, Джонатан Старк, Ройал Дэно, Билл Мехер, Джон Ратценбергер, Лар Парк-Линкольн, Эми Ясбек, Грегори Уэлкотт, Дуайр Браун, Ленора Мэй

О фильме:
Молодой человек наследует старый дом и приглашает переехать туда свою подругу. С ними происходит ряд мистических случаев, что заставляет парня разрыть могилу своего давно умершего деда, который оказывается жив. И так все еще только начинается…



Страна: США
Студия: New World Pictures
Продолжительность: 01:24:35
Перевод: Профессиональный (многоголосый, закадровый)

Кодек: AVC (MKV)
Качество: DVDRip-AVC
Видео: 720x384 (1.85:1), 3 237 Kbps, 25,000 fps, 0.468 Bits/(Pixel*Frame)
Звук:
AC3, 48 kHz, 224 kbps, 2 ch - RUS
AC3, 48 kHz, 224 kbps, 2 ch - ENG
Субтитры: Отсутствуют

Семпл

Релиз от:

Автор рипа: Bathory

General
Unique ID : 194176214478998378046907081495318121114 (0x9214FA85387DF5BC90405F2F88FC4A9A)
Complete name : G:House2.1987.DVDRip_AVC.mkv
Format : Matroska
Format version : Version 2
File size : 2.18 GiB
Duration : 1h 24mn
Overall bit rate : 3 687 Kbps
Encoded date : UTC 2013-05-11 20:01:41
Writing application : mkvmerge v6.1.0 ('Old Devil') built on Mar 2 2013 14:32:37
Writing library : libebml v1.3.0 + libmatroska v1.4.0

Video
ID : 1
Format : AVC
Format/Info : Advanced Video Codec
Format profile : High@L4.1
Format settings, CABAC : Yes
Format settings, ReFrames : 16 frames
Codec ID : V_MPEG4/ISO/AVC
Duration : 1h 24mn
Bit rate : 3 237 Kbps
Width : 720 pixels
Height : 384 pixels
Display aspect ratio : 1.85:1
Frame rate mode : Constant
Frame rate : 25.000 fps
Color space : YUV
Chroma subsampling : 4:2:0
Bit depth : 8 bits
Scan type : Progressive
Bits/(Pixel*Frame) : 0.468
Stream size : 1.87 GiB (86%)
Writing library : x264 core 130 r2273 b3065e6
Encoding settings : cabac=1 / ref=16 / deblock=1:-2:-2 / analyse=0x3:0x133 / me=umh / subme=10 / psy=1 / psy_rd=1.00:0.00 / mixed_ref=1 / me_range=24 / chroma_me=1 / trellis=2 / 8x8dct=1 / cqm=0 / deadzone=21,11 / fast_pskip=1 / chroma_qp_offset=-2 / threads=6 / lookahead_threads=1 / sliced_threads=0 / nr=16 / decimate=1 / interlaced=0 / bluray_compat=0 / constrained_intra=0 / bframes=8 / b_pyramid=2 / b_adapt=2 / b_bias=0 / direct=3 / weightb=1 / open_gop=0 / weightp=2 / keyint=250 / keyint_min=25 / scenecut=40 / intra_refresh=0 / rc_lookahead=60 / rc=2pass / mbtree=1 / bitrate=3237 / ratetol=1.0 / qcomp=0.60 / qpmin=8 / qpmax=45 / qpstep=4 / cplxblur=20.0 / qblur=0.5 / vbv_maxrate=62500 / vbv_bufsize=78125 / nal_hrd=none / ip_ratio=1.40 / aq=1:1.00
Default : Yes
Forced : No

Audio #1
ID : 2
Format : AC-3
Format/Info : Audio Coding 3
Mode extension : CM (complete main)
Format settings, Endianness : Big
Codec ID : A_AC3
Duration : 1h 24mn
Bit rate mode : Constant
Bit rate : 224 Kbps
Channel(s) : 2 channels
Channel positions : Front: L R
Sampling rate : 48.0 KHz
Bit depth : 16 bits
Compression mode : Lossy
Stream size : 136 MiB (6%)
Default : Yes
Forced : No

Audio #2
ID : 3
Format : AC-3
Format/Info : Audio Coding 3
Mode extension : CM (complete main)
Format settings, Endianness : Big
Codec ID : A_AC3
Duration : 1h 24mn
Bit rate mode : Constant
Bit rate : 224 Kbps
Channel(s) : 2 channels
Channel positions : Front: L R
Sampling rate : 48.0 KHz
Bit depth : 16 bits
Compression mode : Lossy
Stream size : 136 MiB (6%)
Default : No
Forced : No



Скачать Дом.2.Проклятая.обитель.House.II.The.Second.Story.(Этан.Уайли).[1987.г.ужасы.фэнтези.комедия.DVDRip-AVC].[MVO].torrent без регистрации
Золото ЗОЛОТАЯ РАЗДАЧА! СКАЧАННОЕ НЕ ЗАСЧИТЫВАЕТСЯ! Золото
Дата: Зарегистрирован   [ Тип: внутренний ] Как тут cкачать?
MAGNET ссылка
MAGNET ссылка


Скачать .torrent

11 KB

Статус: проверено DHT
Скачан: торрент - 128 раз, раздача полностью - 59 раз
Размер: 2,18 GB
Оценка:  - (Голосов: 0)
Поблагодарили: 2
Поделиться ссылкой на эту раздачу с друзьями:
В контактеFacebookОдноклассникиTwitterLivejournalМой МирLiveinternet
 

 
Показать сообщения:    


Вы не можете начинать темы
Вы не можете отвечать на сообщения
Вы не можете редактировать свои сообщения
Вы не можете удалять свои сообщения
Вы не можете голосовать в опросах
Вы не можете прикреплять файлы к сообщениям
Вы можете скачивать файлы