Loading...
Error

Скачать 40 карат / 40 carats (Милтон Кацелас) [1973, мелодрама, комедия, DVDRip-AVC] [MVO] торрент без регистрации

 
Статистика раздачи
Размер:  2,34 GB   |    Скачан:  112 раз
Сидов:  1  [  0 KB/s  ]  
 
Автор Сообщение

Marsianka

[] 

Информация о фильме
Название: 40 карат
Оригинальное название: 40 carats
Год выхода: 1973
Жанр: мелодрама, комедия
Режиссер: Милтон Кацелас / Milton Katselas
В ролях: Лив Ульман (Liv Ullmann), Эдвард Альберт (Edward Albert), Джин Келли (Gene Kelly), Бинни Барнс (Binnie Barnes), Дебора Раффин (Deborah Raffin), Билли Грин Буш (Billy Green Bush), Нэнси Уокер (Nancy Walker) и др.

О фильме:
В Греции случайно встречаются студент Питер и Энн Стенли, которая старше его на много лет. Но любовь Питера оказывается настолько сильной, что он готов преодолеть все преграды, в том числе и нерешительность самой Энн, чтобы жениться на любимой женщине.



Страна: США
Студия: Columbia Pictures, Frankovich Productions
Продолжительность: 01:48:33
Перевод: Профессиональный (многоголосый, закадровый)"CВ-Дубль" для ГТРК "Культура"

Файл
Кодек: h.264
Качество: DVDRip-AVC
Видео: 704x448 (1.85:1) @ 822x448 (анаморф), 23.976 fps, AVC, ~2670 Kbps, 0.353 bits/pixel
Звук:
1) Английский, 48.0 KHz, AC3, 2 ch, 224 Kbps
2) Русский, 48.0 KHz, AC3, 2 ch, 192 Kbps
Субтитры: нет
Общее
Уникальный идентификатор : 211728943996764860874230314329434406018 (0x9F4982E6C3B1A634902BA65FC986BC82)
Полное имя : D:Films40_Karat.1973.DVDRip-AVC.mkv
Формат : Matroska
Версия формата : Version 4 / Version 2
Размер файла : 2,34 Гбайт
Продолжительность : 1 ч. 48 м.
Общий поток : 3088 Кбит/сек
Дата кодирования : UTC 2013-05-11 16:03:05
Программа кодирования : mkvmerge v6.2.0 ('Promised Land') built on Apr 28 2013 12:22:01
Библиотека кодирования : libebml v1.3.0 + libmatroska v1.4.0

Видео
Идентификатор : 1
Формат : AVC
Формат/Информация : Advanced Video Codec
Профиль формата : High@L4.1
Параметр CABAC формата : Да
Параметр ReFrames формата : 16 кадров
Идентификатор кодека : V_MPEG4/ISO/AVC
Продолжительность : 1 ч. 48 м.
Битрейт : 2670 Кбит/сек
Ширина : 704 пикселя
Высота : 448 пикселей
Соотношение сторон : 1,85:1
Режим частоты кадров : Постоянный
Частота кадров : 23,976 кадра/сек
Цветовое пространство : YUV
Субдискретизация насыщенности : 4:2:0
Битовая глубина : 8 бит
Тип развёртки : Прогрессивная
Бит/(Пиксели*Кадры) : 0.353
Размер потока : 1,98 Гбайт (85%)
Библиотека кодирования : x264 core 130 r2273 b3065e6
Настройки программы : cabac=1 / ref=16 / deblock=1:0:0 / analyse=0x3:0x133 / me=umh / subme=10 / psy=1 / psy_rd=1.05:0.10 / mixed_ref=1 / me_range=32 / chroma_me=1 / trellis=2 / 8x8dct=1 / cqm=0 / deadzone=21,11 / fast_pskip=0 / chroma_qp_offset=-3 / threads=8 / lookahead_threads=2 / sliced_threads=0 / nr=0 / decimate=0 / interlaced=0 / bluray_compat=0 / constrained_intra=0 / bframes=12 / b_pyramid=2 / b_adapt=2 / b_bias=0 / direct=3 / weightb=1 / open_gop=0 / weightp=2 / keyint=240 / keyint_min=23 / scenecut=40 / intra_refresh=0 / rc=2pass / mbtree=0 / bitrate=2670 / ratetol=1.0 / qcomp=0.60 / qpmin=0 / qpmax=60 / qpstep=4 / cplxblur=20.0 / qblur=0.5 / ip_ratio=1.40 / pb_ratio=1.30 / aq=2:1.00
Default : Нет
Forced : Нет
Коэффициенты матрицы : BT.601

Аудио #1
Идентификатор : 2
Формат : AC-3
Формат/Информация : Audio Coding 3
Расширение режима : CM (complete main)
Параметр Endianness формата : Big
Идентификатор кодека : A_AC3
Продолжительность : 1 ч. 48 м.
Вид битрейта : Постоянный
Битрейт : 224 Кбит/сек
Каналы : 2 канала
Расположение каналов : Front: L R
Частота : 48,0 КГц
Битовая глубина : 16 бит
Метод сжатия : С потерями
Размер потока : 174 Мбайт (7%)
Язык : English
Default : Нет
Forced : Нет

Аудио #2
Идентификатор : 3
Формат : AC-3
Формат/Информация : Audio Coding 3
Расширение режима : CM (complete main)
Параметр Endianness формата : Big
Идентификатор кодека : A_AC3
Продолжительность : 1 ч. 48 м.
Вид битрейта : Постоянный
Битрейт : 192 Кбит/сек
Каналы : 2 канала
Расположение каналов : Front: L R
Частота : 48,0 КГц
Битовая глубина : 16 бит
Метод сжатия : С потерями
Размер потока : 149 Мбайт (6%)
Язык : Russian
Default : Да
Forced : Нет

Меню
00:00:00.000 : en:Chapter 01
00:10:00.067 : en:Chapter 02
00:20:00.067 : en:Chapter 03
00:30:00.134 : en:Chapter 04
00:40:00.134 : en:Chapter 05
00:50:00.134 : en:Chapter 06
01:00:00.002 : en:Chapter 07
01:10:00.202 : en:Chapter 08
01:20:00.402 : en:Chapter 09
01:30:00.103 : en:Chapter 10
01:39:59.971 : en:Chapter 11
01:48:25.805 : en:Chapter 12
frame I:888 Avg QP:15.08 size: 44503
frame P:32965 Avg QP:17.94 size: 20273
frame B:122303 Avg QP:19.70 size: 11986
Исходник R1 + почищена от шума и синхр. русская дорожка с переводом "СВ-Дубль" для ГТРК "Культура" от TVRip
Релиз от: Temperest



Скачать 40.карат.40.carats.(Милтон.Кацелас).[1973.мелодрама.комедия.DVDRip-AVC].[MVO].torrent без регистрации
Золото ЗОЛОТАЯ РАЗДАЧА! СКАЧАННОЕ НЕ ЗАСЧИТЫВАЕТСЯ! Золото
Дата: Зарегистрирован   [ Тип: внутренний ] Как тут cкачать?
MAGNET ссылка
MAGNET ссылка


Скачать .torrent

12 KB

Статус: проверено DHT
Скачан: торрент - 112 раз, раздача полностью - 3 раз
Размер: 2,34 GB
Оценка:  - (Голосов: 0)
Поблагодарили: 1
Поделиться ссылкой на эту раздачу с друзьями:
В контактеFacebookОдноклассникиTwitterLivejournalМой МирLiveinternet
 

 
Показать сообщения:    


Вы не можете начинать темы
Вы не можете отвечать на сообщения
Вы не можете редактировать свои сообщения
Вы не можете удалять свои сообщения
Вы не можете голосовать в опросах
Вы не можете прикреплять файлы к сообщениям
Вы можете скачивать файлы