Loading...
Error

Скачать Тринадцатый этаж / Напортачили. Полный облом! / Botched (Кит Райан) [2006 г., триллер, комедия, криминал, ужасы, DVDRip-AVC] VO (Russianguy27) торрент без регистрации

 
Статистика раздачи
Размер:  1,46 GB   |    Скачан:  149 раз
Сидов:  1  [  0 KB/s  ]  
 
Автор Сообщение

durik

[] 

Тринадцатый этаж / Напортачили. Полный облом! / Botched

Название: Тринадцатый этаж / Напортачили. Полный облом!
Оригинальное название: Botched
Год выхода: 2006
Жанр: триллер, комедия, криминал, ужасы
Режиссер: Кит Райан
В ролях: Стивен Дорфф, Дэвид Хип, Алан Смит, Шон Пертуи, Джэми Формен, Расселл Смит, Брона Галлахер, Норма Шихан, Джин Руни, Джейм Мюррэй, Хью О`Конор, Джофф Белл, Зак Магвайр, Эдвард Бейкер-Дьюли

О фильме:
Профессиональный вор по имени Ритчи проваливает своё последнее задание во Франции, где ему не удаётся похитить бриллианты (точнее, удаётся, но потом он их глупо теряет). Его босс даёт ему шанс исправиться, для чего молодому человеку предстоит отправиться в холодную Россию, в Москву, где он должен будет пробраться в здание небоскрёба и похитить в пентхаусе драгоценный крест. В помощь к Ритчи даются два русских брата-братка (толстяк и худой).
Они пробираются в здание, заходят в лифт и методом манипуляций с его электронной начинкой поднимаются на самый верх, где после короткой перестрелки добывают искомую вещь и забираются в лифт, чтобы покинуть здание. Но охрана получает информацию о нападении и переправляет лифт прямиком на 13-й этаж, закрытый для общего пользования. В связи с этим трое бандитов оказываются на пустующем этаже вместе с несколькими невольными заложниками и обитающим там маньяком, который возомнил себя потомком Ивана Грозного…



Страна: Германия, Ирландия, Великобритания, США
Студия: Ardmore Studios, Herbert Road, Bray, County Wicklow, Ireland
Продолжительность: 01:31:00
Перевод: Любительский (одноголосый) [Russianguy27]

Внимание ! Ненормативная лексика !

Кодек: AVC / MKV
Качество: DVDRip-AVC
Видео: 720x400 (16:9), 1908 kbps, 25,000 fps, 0,265 Bits/(Pixel*Frame)
Звук: AC3, 48 kHz, 384 kbps, 6 ch
Субтитры: Отсутствуют

Семпл

Релиз от:

Автор рипа: Bathory

General
Unique ID : 177186258082628346652078996572049122876 (0x854CD4FF19BF5DDEA9B385CDB266263C)
Complete name : H:Botched.2006.DVDRip_AVC.mkv
Format : Matroska
Format version : Version 2
File size : 1.46 GiB
Duration : 1h 31mn
Overall bit rate : 2 292 Kbps
Encoded date : UTC 2013-05-12 18:16:25
Writing application : mkvmerge v6.1.0 ('Old Devil') built on Mar 2 2013 14:32:37
Writing library : libebml v1.3.0 + libmatroska v1.4.0

Video
ID : 1
Format : AVC
Format/Info : Advanced Video Codec
Format profile : High@L4.1
Format settings, CABAC : Yes
Format settings, ReFrames : 16 frames
Codec ID : V_MPEG4/ISO/AVC
Duration : 1h 31mn
Bit rate : 1 908 Kbps
Width : 720 pixels
Height : 400 pixels
Display aspect ratio : 16:9
Frame rate mode : Constant
Frame rate : 25.000 fps
Color space : YUV
Chroma subsampling : 4:2:0
Bit depth : 8 bits
Scan type : Progressive
Bits/(Pixel*Frame) : 0.265
Stream size : 1.18 GiB (81%)
Writing library : x264 core 130 r2273 b3065e6
Encoding settings : cabac=1 / ref=16 / deblock=1:-1:-1 / analyse=0x3:0x133 / me=umh / subme=10 / psy=1 / psy_rd=1.00:0.10 / mixed_ref=1 / me_range=24 / chroma_me=1 / trellis=2 / 8x8dct=1 / cqm=0 / deadzone=21,11 / fast_pskip=1 / chroma_qp_offset=-3 / threads=6 / lookahead_threads=1 / sliced_threads=0 / nr=10 / decimate=1 / interlaced=0 / bluray_compat=0 / constrained_intra=0 / bframes=8 / b_pyramid=2 / b_adapt=2 / b_bias=0 / direct=3 / weightb=1 / open_gop=0 / weightp=2 / keyint=250 / keyint_min=25 / scenecut=40 / intra_refresh=0 / rc_lookahead=60 / rc=2pass / mbtree=1 / bitrate=1908 / ratetol=1.0 / qcomp=0.60 / qpmin=8 / qpmax=45 / qpstep=4 / cplxblur=20.0 / qblur=0.5 / vbv_maxrate=50000 / vbv_bufsize=62500 / nal_hrd=none / ip_ratio=1.40 / aq=1:1.00
Default : Yes
Forced : No

Audio
ID : 2
Format : AC-3
Format/Info : Audio Coding 3
Mode extension : CM (complete main)
Format settings, Endianness : Big
Codec ID : A_AC3
Duration : 1h 31mn
Bit rate mode : Constant
Bit rate : 384 Kbps
Channel(s) : 6 channels
Channel positions : Front: L C R, Side: L R, LFE
Sampling rate : 48.0 KHz
Bit depth : 16 bits
Compression mode : Lossy
Stream size : 250 MiB (17%)
Default : Yes
Forced : No



Скачать Тринадцатый.этаж.Напортачили.Полный.облом!.Botched.(Кит.Райан).[2006.г.триллер.комедия.криминал.ужасы.DVDRip-AVC].VO.(Russianguy27).torrent без регистрации
Золото ЗОЛОТАЯ РАЗДАЧА! СКАЧАННОЕ НЕ ЗАСЧИТЫВАЕТСЯ! Золото
Дата: Зарегистрирован   [ Тип: внутренний ] Как тут cкачать?
MAGNET ссылка
MAGNET ссылка


Скачать .torrent

15 KB

Статус: проверено DHT
Скачан: торрент - 149 раз, раздача полностью - 222 раз
Размер: 1,46 GB
Оценка:  - (Голосов: 0)
Поблагодарили: 2
Поделиться ссылкой на эту раздачу с друзьями:
В контактеFacebookОдноклассникиTwitterLivejournalМой МирLiveinternet
 

 

durik

[] 

Просьба закрыть раздачу. Рассинхрон по звуку.
 
Показать сообщения:    


Вы не можете начинать темы
Вы не можете отвечать на сообщения
Вы не можете редактировать свои сообщения
Вы не можете удалять свои сообщения
Вы не можете голосовать в опросах
Вы не можете прикреплять файлы к сообщениям
Вы можете скачивать файлы