Loading...
Error

Скачать Крикуны / Screamers (Кристиан Дюге) [1995 г., ужасы, фантастика, боевик, триллер, драма, приключения, DVDRip-AVC] DUB торрент без регистрации

 
Статистика раздачи
Размер:  1,46 GB   |    Скачан:  166 раз
Сидов:  1  [  0 KB/s  ]  
 
Автор Сообщение

durik

[] 

Крикуны / Screamers

Название: Крикуны
Оригинальное название: Screamers
Год выхода: 1995
Жанр: ужасы, фантастика, боевик, триллер, драма, приключения
Режиссер: Кристиан Дюге
В ролях: Питер Уэллер, Рой Дюпюи, Дженнифер Рубин, Эндрю Лоэр, Чарльз Пауэлл, Рон Уайт, Майкл Калоз, Лилиана Коморовска, Джейсон Кавалье, Лени Паркер

О фильме:
2078 год. Офицер Содружества — армии повстанцев — полковник Джозеф Хендрикссон назначен руководить обороной заставы на планете Сириус-6Б, ставшей опорным пунктом в противостоянии с НЭБ — Новым Экономическим Блоком. Главный козырь Содружества в войне с НЭБ — это Крикуны, сверхновое оружие, запрограммированное на уничтожение всех форм жизни.



Страна: Канада, США, Япония
Студия: Allegro Films, Fries Film Group, Fuji Eight Company Ltd
Продолжительность: 01:44:00
Перевод: Профессиональный (полное дублирование)

Кодек: AVC / MKV
Качество: DVDRip-AVC
Видео: 704x400, 1621 kbps, 25 fps, 0,230 Bits/(Pixel*Frame)
Звук: AC3, 48 kHz, 384 kbps, 6 ch
Субтитры: Отсутствуют

Семпл

Релиз от:

Автор рипа: Bathory

General
Unique ID : 202875564259848496901242712609002992230 (0x98A069944ED69BB88F2466277B15B266)
Complete name : G:screamers.1995.dvdrip_avc.mkv
Format : Matroska
Format version : Version 2
File size : 1.46 GiB
Duration : 1h 44mn
Overall bit rate : 2 007 Kbps
Encoded date : UTC 2013-05-15 02:35:56
Writing application : mkvmerge v6.1.0 ('Old Devil') built on Mar 2 2013 14:32:37
Writing library : libebml v1.3.0 + libmatroska v1.4.0

Video
ID : 1
Format : AVC
Format/Info : Advanced Video Codec
Format profile : High@L4.1
Format settings, CABAC : Yes
Format settings, ReFrames : 16 frames
Codec ID : V_MPEG4/ISO/AVC
Duration : 1h 44mn
Bit rate : 1 621 Kbps
Width : 704 pixels
Height : 400 pixels
Display aspect ratio : 16:9
Frame rate mode : Constant
Frame rate : 25.000 fps
Color space : YUV
Chroma subsampling : 4:2:0
Bit depth : 8 bits
Scan type : Progressive
Bits/(Pixel*Frame) : 0.230
Stream size : 1.15 GiB (79%)
Writing library : x264 core 130 r2273 b3065e6
Encoding settings : cabac=1 / ref=16 / deblock=1:-1:-1 / analyse=0x3:0x133 / me=umh / subme=10 / psy=1 / psy_rd=1.00:0.10 / mixed_ref=1 / me_range=24 / chroma_me=1 / trellis=2 / 8x8dct=1 / cqm=0 / deadzone=21,11 / fast_pskip=1 / chroma_qp_offset=-3 / threads=6 / lookahead_threads=1 / sliced_threads=0 / nr=15 / decimate=1 / interlaced=0 / bluray_compat=0 / constrained_intra=0 / bframes=8 / b_pyramid=2 / b_adapt=2 / b_bias=0 / direct=3 / weightb=1 / open_gop=0 / weightp=2 / keyint=250 / keyint_min=25 / scenecut=40 / intra_refresh=0 / rc_lookahead=60 / rc=2pass / mbtree=1 / bitrate=1621 / ratetol=1.0 / qcomp=0.60 / qpmin=8 / qpmax=45 / qpstep=4 / cplxblur=20.0 / qblur=0.5 / vbv_maxrate=50000 / vbv_bufsize=62500 / nal_hrd=none / ip_ratio=1.40 / aq=1:1.00
Default : Yes
Forced : No

Audio
ID : 2
Format : AC-3
Format/Info : Audio Coding 3
Mode extension : CM (complete main)
Format settings, Endianness : Big
Codec ID : A_AC3
Duration : 1h 44mn
Bit rate mode : Constant
Bit rate : 384 Kbps
Channel(s) : 6 channels
Channel positions : Front: L C R, Side: L R, LFE
Sampling rate : 48.0 KHz
Bit depth : 16 bits
Compression mode : Lossy
Stream size : 286 MiB (19%)
Default : Yes
Forced : No



Скачать Крикуны.Screamers.(Кристиан.Дюге).[1995.г.ужасы.фантастика.боевик.триллер.драма.приключения.DVDRip-AVC].DUB.torrent без регистрации
Золото ЗОЛОТАЯ РАЗДАЧА! СКАЧАННОЕ НЕ ЗАСЧИТЫВАЕТСЯ! Золото
Дата: Зарегистрирован   [ Тип: внутренний ] Как тут cкачать?
MAGNET ссылка
MAGNET ссылка


Скачать .torrent

15 KB

Статус: проверено DHT
Скачан: торрент - 166 раз, раздача полностью - 157 раз
Размер: 1,46 GB
Оценка:  5 (Голосов: 1)
Поблагодарили: 6
Поделиться ссылкой на эту раздачу с друзьями:
В контактеFacebookОдноклассникиTwitterLivejournalМой МирLiveinternet
 

 
Показать сообщения:    


Вы не можете начинать темы
Вы не можете отвечать на сообщения
Вы не можете редактировать свои сообщения
Вы не можете удалять свои сообщения
Вы не можете голосовать в опросах
Вы не можете прикреплять файлы к сообщениям
Вы можете скачивать файлы