Loading...
Error

Скачать Англичанин, который поднялся на холм, а спустился с горы / The Englishman Who Went Up a Hill But Came Down a Mountain (Кристофер Монгер) [1995, драма, комедия, BDRip] [AVO]+[MVO]+[Sub] торрент без регистрации

 
Статистика раздачи
Размер:  1,45 GB   |    Скачан:  108 раз
Сидов:  1  [  0 KB/s  ]  
 
Автор Сообщение

Marsianka

[] 

Название: Англичанин, который поднялся на холм, а спустился с горы
Оригинальное название: The Englishman Who Went Up a Hill But Came Down a Mountain
Год выпуска: 1995
Жанр: драма, комедия
Выпущено: Великобритания, США, Parallax Pictures, Miramax Films
Режиссер: Кристофер Монгер
В ролях: Хью Грант, Тара Фитцджеральд, Колм Мини, Йен МакНайс, Иэн Харт, Кеннет Гриффит, Тудор Вон, Хью Вон, Роберт Паг, Роберт Блайт, Гарфилд Морган, Лиза Пэлфри, Дэфидд Вин Робертс, Иуан Рис, Анвен Уильямс, Дэвид Ллойд Мередит, Фрезер Кейнс, Джек Уолтерс, Гарри Кречмер, Хауэлл Эванс, Мэйси МакНайс, Николас МакГохи

О фильме: Двое англичан приезжают в 1917-ом году в уэльсскую деревушку в качестве картографов и наталкиваются на местный холм Финон-гавр, которому не хватает всего 16 футов, чтобы стать горой на карте. В Англии если высота не менее 1000 футов, это гора, а если менее 1000 футов холм. Недовольные и эксцентричные жители деревни требуют перемерить гору, но упрямые картографы этого делать не желают. Тогда местные пускаются на хитрость, решая нарастить холм землёй с местных полей



Качество: BDRip
Размер: 1.44 ГБ
Продолжительность: 01:35:48

Видео: XviD, 1574 Kбит/с, 720x304
Аудио 1: русский, 48 kHz, AC3, 2 ch, 192 kbps avg, Пётр Карцев [Авторский]
Аудио 2: русский, 48 kHz, AC3, 2 ch, 192 kbps avg, ViruseProject [Любительский многоголосый]

Внешние файлы
Аудио: испанский, 48 kHz, AC3, 2 ch, 192 kbps avg
Субтитры: русские
Субтитры: английские
ММКФ, 1995 год
Победитель (1):
Приз христианского (экуменического) жюри

Номинации (1):
Приз за лучший фильм - Золотой «Святой Георгий»
Общее
Полное имя : E:VideoAnglichanin.kotoryj.podnjalsja.na.holm.a.spystilsja.s.gory.1995.XviD.BDRipAnglichanin.kotoryj.podnjalsja.na.holm.a.spystilsja.s.gory.1995.eng.srt
Размер файла : 92,2 Кбайт

Общее
Полное имя : E:VideoAnglichanin.kotoryj.podnjalsja.na.holm.a.spystilsja.s.gory.1995.XviD.BDRipAnglichanin.kotoryj.podnjalsja.na.holm.a.spystilsja.s.gory.1995.Original.spa.ac3
Формат : AC-3
Формат/Информация : Audio Coding 3
Размер файла : 132 Мбайт
Продолжительность : 1 ч. 35 м.
Режим общего битрейта : Постоянный
Общий поток : 192 Кбит/сек

Аудио
Формат : AC-3
Формат/Информация : Audio Coding 3
Расширение режима : CM (complete main)
Параметр Endianness формата : Big
Продолжительность : 1 ч. 35 м.
Вид битрейта : Постоянный
Битрейт : 192 Кбит/сек
Каналы : 2 канала
Расположение каналов : Front: L R
Частота : 48,0 КГц
Битовая глубина : 16 бит
Метод сжатия : С потерями
Размер потока : 132 Мбайт (100%)

Общее
Полное имя : E:VideoAnglichanin.kotoryj.podnjalsja.na.holm.a.spystilsja.s.gory.1995.XviD.BDRipAnglichanin.kotoryj.podnjalsja.na.holm.a.spystilsja.s.gory.1995.rus.srt
Размер файла : 132 Кбайт

Общее
Полное имя : E:VideoAnglichanin.kotoryj.podnjalsja.na.holm.a.spystilsja.s.gory.1995.XviD.BDRipAnglichanin.kotoryj.podnjalsja.na.holm.a.spystilsja.s.gory.1995.XviD.BDRip.avi
Формат : AVI
Формат/Информация : Audio Video Interleave
Размер файла : 1,32 Гбайт
Продолжительность : 1 ч. 35 м.
Общий поток : 1972 Кбит/сек
Программа кодирования : VirtualDubMod 1.5.10.2 (build 2540/release)
Библиотека кодирования : VirtualDubMod build 2540/release

Видео
Идентификатор : 0
Формат : MPEG-4 Visual
Профиль формата : Advanced Simple@L5
Параметр BVOP формата : 1
Параметр QPel формата : Нет
Параметр GMC формата : Без точки перехода
Параметр матрицы формата : Default (H.263)
Режим смешивания : Сжатый битовый поток
Идентификатор кодека : XVID
Идентификатор кодека/Подсказка : XviD
Продолжительность : 1 ч. 35 м.
Битрейт : 1574 Кбит/сек
Ширина : 720 пикселей
Высота : 304 пикселя
Соотношение сторон : 2,35:1
Частота кадров : 24,000 кадра/сек
Цветовое пространство : YUV
Субдискретизация насыщенности : 4:2:0
Битовая глубина : 8 бит
Тип развёртки : Прогрессивная
Метод сжатия : С потерями
Бит/(Пиксели*Кадры) : 0.300
Размер потока : 1,05 Гбайт (80%)
Библиотека кодирования : XviD 1.2.1 (UTC 2008-12-04)

Аудио #1
Идентификатор : 1
Формат : AC-3
Формат/Информация : Audio Coding 3
Расширение режима : CM (complete main)
Параметр Endianness формата : Big
Идентификатор кодека : 2000
Продолжительность : 1 ч. 35 м.
Вид битрейта : Постоянный
Битрейт : 192 Кбит/сек
Каналы : 2 канала
Расположение каналов : Front: L R
Частота : 48,0 КГц
Битовая глубина : 16 бит
Метод сжатия : С потерями
Размер потока : 132 Мбайт (10%)
Выравнивание : Разделение по промежуткам
Продолжительность промежутка : 42 мс. (1,00 видеокадр)
Время предзагрузки промежутка : 500 мс.

Аудио #2
Идентификатор : 2
Формат : AC-3
Формат/Информация : Audio Coding 3
Расширение режима : CM (complete main)
Параметр Endianness формата : Big
Идентификатор кодека : 2000
Продолжительность : 1 ч. 35 м.
Вид битрейта : Постоянный
Битрейт : 192 Кбит/сек
Каналы : 2 канала
Расположение каналов : Front: L R
Частота : 48,0 КГц
Битовая глубина : 16 бит
Метод сжатия : С потерями
Размер потока : 132 Мбайт (10%)
Выравнивание : Разделение по промежуткам
Продолжительность промежутка : 42 мс. (1,00 видеокадр)
Время предзагрузки промежутка : 500 мс.



Скачать Англичанин.который.поднялся.на.холм.а.спустился.с.горы.The.Englishman.Who.Went.Up.a.Hill.But.Came.Down.a.Mountain.(Кристофер.Монгер).[1995.драма.комедия.BDRip].[AVO]+[MVO]+[Sub].torrent без регистрации
Золото ЗОЛОТАЯ РАЗДАЧА! СКАЧАННОЕ НЕ ЗАСЧИТЫВАЕТСЯ! Золото
Дата: Зарегистрирован   [ Тип: внутренний ] Как тут cкачать?
MAGNET ссылка
MAGNET ссылка


Скачать .torrent

15 KB

Статус: проверено DHT
Скачан: торрент - 108 раз, раздача полностью - 8 раз
Размер: 1,45 GB
Оценка:  - (Голосов: 0)
Поблагодарили: 1
Поделиться ссылкой на эту раздачу с друзьями:
В контактеFacebookОдноклассникиTwitterLivejournalМой МирLiveinternet
 

 
Показать сообщения:    


Вы не можете начинать темы
Вы не можете отвечать на сообщения
Вы не можете редактировать свои сообщения
Вы не можете удалять свои сообщения
Вы не можете голосовать в опросах
Вы не можете прикреплять файлы к сообщениям
Вы можете скачивать файлы