Loading...
Error

Скачать Тень / The Shadow (Рассел Малкэй) [1994, фэнтези, боевик, триллер, криминал, детектив, приключения, BDRip] [MVO]x2+[DVO]x2+[AVO]x3+[Оригинал]+[Sub] торрент без регистрации

 
Статистика раздачи
Размер:  2,41 GB   |    Скачан:  115 раз
Сидов:  1  [  0 KB/s  ]  
 
Автор Сообщение

Marsianka

[] 

Название: Тень
Оригинальное название: The Shadow
Год выпуска: 1994
Жанр: фэнтези, боевик, триллер, криминал, детектив, приключения
Выпущено: США, Universal Pictures, Bregman/Baer Productions
Режиссер: Рассел Малкэй
В ролях: Алек Болдуин, Джон Лоун, Пенелопа Энн Миллер, Питер Бойл, Иэн МакКеллен, Тим Карри, Джонатан Уинтерс, Саб Симоно, Андре Грегори, Брэди Цурутани, Джеймс Хонг, Арсенио Тринидад, Джозеф Maэp, Джон Капелос, Макс Райт, Аарон Лустиг, Синоа Лорен, Рудольф Уиллрич, Верлон Эдвардс, Уэсли Манн, Джо ДАнджерио, Ларри Джошуа, Ларри Хэнкин, Вун Янг Парк, Брайан Хоу, Натан Юнг, Аль Леонг, Джералд Окамура, Фред Сандерс, Аликс Илайас, Абрахам Бенруби, Стив Хитнер, Лили Марийе, Патрик Фишлер

О фильме: После пребывания в буддийском монастыре бывший беспощадный правитель огромной наркоимперии а ныне добропорядочный гражданин, скрыв лицо под маской, борется со злом в самом страшном городе мира Нью-Йорке. Но вот у него появляется соперник не менее могущественный чем он сам потомок Чингисхана, стремящийся подчинить себе весь мир



Качество: BDRip
Размер: 2.41 ГБ
Продолжительность: 01:47:25

Видео: XviD, 1646 Kбит/с, 720х384
Аудио 1: русский, 48 kHz, AC3, 2 ch, 192 kbps avg, Амальгама [Профессиональный многоголосый]
Аудио 2: русский, 48 kHz, AC3, 2 ch, 192 kbps avg, Рен-ТВ [Профессиональный двухголосый]
Аудио 3: русский, 48 kHz, AC3, 2 ch, 192 kbps avg, Сергей Визгунов [Авторский одноголосый]
Аудио 4: русский, 48 kHz, AC3, 2 ch, 192 kbps avg, Вартан Дохалов [Авторский одноголосый]
Аудио 5: русский, 48 kHz, AC3, 2 ch, 192 kbps avg, Юрий Живов [Авторский одноголосый]

Внешние файлы
Аудио: русский, 48 kHz, AC3, 2 ch, 192 kbps avg, Twister [Профессиональный многоголосый]
Аудио: русский, 48 kHz, AC3, 2 ch, 192 kbps avg, НТВ [Профессиональный двухголосый]
Аудио: английский, 48 kHz, AC3, 2 ch, 192 kbps avg, [Оригинал]
Субтитры: русские
Сатурн, 1995 год
Номинации (4):
Лучшая актриса (Пенелопа Энн Миллер)
Лучшие костюмы
Лучшие спецэффекты
Лучшая музыка
Общее
Полное имя : E:VideoTen.1994.XviD.BDRipTen.1994.DVO.rus.НТВ.ac3
Формат : AC-3
Формат/Информация : Audio Coding 3
Размер файла : 148 Мбайт
Продолжительность : 1 ч. 47 м.
Режим общего битрейта : Постоянный
Общий поток : 192 Кбит/сек

Аудио
Формат : AC-3
Формат/Информация : Audio Coding 3
Расширение режима : CM (complete main)
Параметр Endianness формата : Big
Продолжительность : 1 ч. 47 м.
Вид битрейта : Постоянный
Битрейт : 192 Кбит/сек
Каналы : 2 канала
Расположение каналов : Front: L R
Частота : 48,0 КГц
Битовая глубина : 16 бит
Метод сжатия : С потерями
Размер потока : 148 Мбайт (100%)

Общее
Полное имя : E:VideoTen.1994.XviD.BDRipTen.1994.MVO.rus.Twister.ac3
Формат : AC-3
Формат/Информация : Audio Coding 3
Размер файла : 147 Мбайт
Продолжительность : 1 ч. 47 м.
Режим общего битрейта : Постоянный
Общий поток : 192 Кбит/сек

Аудио
Формат : AC-3
Формат/Информация : Audio Coding 3
Расширение режима : CM (complete main)
Параметр Endianness формата : Big
Продолжительность : 1 ч. 47 м.
Вид битрейта : Постоянный
Битрейт : 192 Кбит/сек
Каналы : 2 канала
Расположение каналов : Front: L R
Частота : 48,0 КГц
Битовая глубина : 16 бит
Метод сжатия : С потерями
Размер потока : 147 Мбайт (100%)

Общее
Полное имя : E:VideoTen.1994.XviD.BDRipTen.1994.Original.eng.ac3
Формат : AC-3
Формат/Информация : Audio Coding 3
Размер файла : 148 Мбайт
Продолжительность : 1 ч. 47 м.
Режим общего битрейта : Постоянный
Общий поток : 192 Кбит/сек

Аудио
Формат : AC-3
Формат/Информация : Audio Coding 3
Расширение режима : CM (complete main)
Параметр Endianness формата : Big
Продолжительность : 1 ч. 47 м.
Вид битрейта : Постоянный
Битрейт : 192 Кбит/сек
Каналы : 2 канала
Расположение каналов : Front: L R
Частота : 48,0 КГц
Битовая глубина : 16 бит
Метод сжатия : С потерями
Размер потока : 148 Мбайт (100%)

Общее
Полное имя : E:VideoTen.1994.XviD.BDRipTen.1994.rus.srt
Формат : SubRip
Размер файла : 60,0 Кбайт

Текст
Формат : SubRip
Метод сжатия : Без потерь

Общее
Полное имя : E:VideoTen.1994.XviD.BDRipTen.1994.XviD.BDRip.avi
Формат : AVI
Формат/Информация : Audio Video Interleave
Размер файла : 1,98 Гбайт
Продолжительность : 1 ч. 47 м.
Общий поток : 2634 Кбит/сек
Программа кодирования : VirtualDubMod 1.5.10.2 (build 2540/release)
Библиотека кодирования : VirtualDubMod build 2540/release

Видео
Идентификатор : 0
Формат : MPEG-4 Visual
Профиль формата : Advanced Simple@L5
Параметр BVOP формата : 1
Параметр QPel формата : Нет
Параметр GMC формата : Без точки перехода
Параметр матрицы формата : Default (H.263)
Режим смешивания : Сжатый битовый поток
Идентификатор кодека : XVID
Идентификатор кодека/Подсказка : XviD
Продолжительность : 1 ч. 47 м.
Битрейт : 1646 Кбит/сек
Ширина : 720 пикселей
Высота : 384 пикселя
Соотношение сторон : 1,85:1
Частота кадров : 23,976 кадра/сек
Цветовое пространство : YUV
Субдискретизация насыщенности : 4:2:0
Битовая глубина : 8 бит
Тип развёртки : Прогрессивная
Метод сжатия : С потерями
Бит/(Пиксели*Кадры) : 0.248
Размер потока : 1,23 Гбайт (62%)
Библиотека кодирования : XviD 1.2.1 (UTC 2008-12-04)

Аудио #1
Идентификатор : 1
Формат : AC-3
Формат/Информация : Audio Coding 3
Расширение режима : CM (complete main)
Параметр Endianness формата : Big
Идентификатор кодека : 2000
Продолжительность : 1 ч. 47 м.
Вид битрейта : Постоянный
Битрейт : 192 Кбит/сек
Каналы : 2 канала
Расположение каналов : Front: L R
Частота : 48,0 КГц
Битовая глубина : 16 бит
Метод сжатия : С потерями
Размер потока : 147 Мбайт (7%)
Выравнивание : Разделение по промежуткам
Продолжительность промежутка : 42 мс. (1,00 видеокадр)
Время предзагрузки промежутка : 500 мс.

Аудио #2
Идентификатор : 2
Формат : AC-3
Формат/Информация : Audio Coding 3
Расширение режима : CM (complete main)
Параметр Endianness формата : Big
Идентификатор кодека : 2000
Продолжительность : 1 ч. 47 м.
Вид битрейта : Постоянный
Битрейт : 192 Кбит/сек
Каналы : 2 канала
Расположение каналов : Front: L R
Частота : 48,0 КГц
Битовая глубина : 16 бит
Метод сжатия : С потерями
Размер потока : 148 Мбайт (7%)
Выравнивание : Разделение по промежуткам
Продолжительность промежутка : 42 мс. (1,00 видеокадр)
Время предзагрузки промежутка : 500 мс.

Аудио #3
Идентификатор : 3
Формат : AC-3
Формат/Информация : Audio Coding 3
Расширение режима : CM (complete main)
Параметр Endianness формата : Big
Идентификатор кодека : 2000
Продолжительность : 1 ч. 47 м.
Вид битрейта : Постоянный
Битрейт : 192 Кбит/сек
Каналы : 2 канала
Расположение каналов : Front: L R
Частота : 48,0 КГц
Битовая глубина : 16 бит
Метод сжатия : С потерями
Размер потока : 147 Мбайт (7%)
Выравнивание : Разделение по промежуткам
Продолжительность промежутка : 42 мс. (1,00 видеокадр)
Время предзагрузки промежутка : 500 мс.

Аудио #4
Идентификатор : 4
Формат : AC-3
Формат/Информация : Audio Coding 3
Расширение режима : CM (complete main)
Параметр Endianness формата : Big
Идентификатор кодека : 2000
Продолжительность : 1 ч. 47 м.
Вид битрейта : Постоянный
Битрейт : 192 Кбит/сек
Каналы : 2 канала
Расположение каналов : Front: L R
Частота : 48,0 КГц
Битовая глубина : 16 бит
Метод сжатия : С потерями
Размер потока : 148 Мбайт (7%)
Выравнивание : Разделение по промежуткам
Продолжительность промежутка : 42 мс. (1,00 видеокадр)
Время предзагрузки промежутка : 500 мс.

Аудио #5
Идентификатор : 5
Формат : AC-3
Формат/Информация : Audio Coding 3
Расширение режима : CM (complete main)
Параметр Endianness формата : Big
Идентификатор кодека : 2000
Продолжительность : 1 ч. 47 м.
Вид битрейта : Постоянный
Битрейт : 192 Кбит/сек
Каналы : 2 канала
Расположение каналов : Front: L R
Частота : 48,0 КГц
Битовая глубина : 16 бит
Метод сжатия : С потерями
Размер потока : 148 Мбайт (7%)
Выравнивание : Разделение по промежуткам
Продолжительность промежутка : 42 мс. (1,00 видеокадр)
Время предзагрузки промежутка : 500 мс.



Скачать Тень.The.Shadow.(Рассел.Малкэй).[1994.фэнтези.боевик.триллер.криминал.детектив.приключения.BDRip].[MVO]x2+[DVO]x2+[AVO]x3+[Оригинал]+[Sub].torrent без регистрации
Золото ЗОЛОТАЯ РАЗДАЧА! СКАЧАННОЕ НЕ ЗАСЧИТЫВАЕТСЯ! Золото
Дата: Зарегистрирован   [ Тип: внутренний ] Как тут cкачать?
MAGNET ссылка
MAGNET ссылка


Скачать .torrent

13 KB

Статус: проверено DHT
Скачан: торрент - 115 раз, раздача полностью - 15 раз
Размер: 2,41 GB
Оценка:  - (Голосов: 0)
Поблагодарили: 1
Поделиться ссылкой на эту раздачу с друзьями:
В контактеFacebookОдноклассникиTwitterLivejournalМой МирLiveinternet
 

 
Показать сообщения:    


Вы не можете начинать темы
Вы не можете отвечать на сообщения
Вы не можете редактировать свои сообщения
Вы не можете удалять свои сообщения
Вы не можете голосовать в опросах
Вы не можете прикреплять файлы к сообщениям
Вы можете скачивать файлы