Loading...
Error

Скачать Увлечение / The Crush (Алан Шапиро) [1993, триллер, драма, HDTVRip] [DVO] торрент без регистрации

 
Статистика раздачи
Размер:  745 MB   |    Скачан:  105 раз
Сидов:  1  [  0 KB/s  ]  
 
Автор Сообщение

Marsianka

[] 


- Прорыв года, Лучший злодей

Страна: США / Morgan Creek Productions
Жанр: триллер, драма
Год выпуска: 1993
Продолжительность: 01:28:54
Перевод: Профессиональный (двухголосый, закадровый)

Слоган: «Её влюблённость может быть смертельно опасной»

Режиссер: Алан Шапиро / Alan Shapiro

В ролях: Кэри Элвис, Алисия Сильверстоун, Дженнифер Рубин, Кертвуд Смит, Эмбер Бенсон, Гвинет Уолш, Мэттью Уолкер, Дебора Хэнкок, Беверли Эллиотт, Эндрю Эйрли

О фильме: Жизнь Ника Элиота окончательно наладилась. Он получил отличную работу в популярном журнале, завязал романтические отношения с чудесной девушкой Эми и снял уютный домик у богатой супружеской четы в престижном квартале.

Когда же Ник познакомился с 14-летней дочерью хозяев Эдриан, она буквально очаровала молодого журналиста своей красотой, умом и формами. А Эдриан просто обезумела от страсти к Нику.

Но, не встретив взаимности, благовоспитанный подросток быстро превратился в одержимую ревностью мстительницу. Потому что Эдриан привыкла всегда получать все, что хочет. И если любимый не достанется ей, то не достанется никому



лицам, достигшим 16 лет
Рейтинг MPAA:

Качество видео: HDTVRip
Формат видео: AVI

Видео: 656x368 (1.78:1), 23.976 fps, XviD build 65 ~1034 kbps avg, 0.18 bit/pixel
Звук: 48 kHz, MPEG Layer 3, 2 ch, ~128.00 kbps avg

General
Complete name : Увлечение.avi
Format : AVI
Format/Info : Audio Video Interleave
File size : 745 MiB
Duration : 1h 28mn
Overall bit rate : 1 172 Kbps
Writing application : VirtualDubMod 1.5.10.3 (build 2550/release)
Writing library : VirtualDubMod build 2550/release

Video
ID : 0
Format : MPEG-4 Visual
Format profile : Advanced Simple@L5
Format settings, BVOP : 1
Format settings, QPel : No
Format settings, GMC : No warppoints
Format settings, Matrix : Custom
Codec ID : XVID
Codec ID/Hint : XviD
Duration : 1h 28mn
Bit rate : 1 034 Kbps
Width : 656 pixels
Height : 368 pixels
Display aspect ratio : 16:9
Frame rate : 23.976 fps
Color space : YUV
Chroma subsampling : 4:2:0
Bit depth : 8 bits
Scan type : Progressive
Compression mode : Lossy
Bits/(Pixel*Frame) : 0.179
Stream size : 658 MiB (88%)
Writing library : XviD 65

Audio
ID : 1
Format : MPEG Audio
Format version : Version 1
Format profile : Layer 3
Codec ID : 55
Codec ID/Hint : MP3
Duration : 1h 28mn
Bit rate mode : Constant
Bit rate : 128 Kbps
Channel(s) : 2 channels
Sampling rate : 48.0 KHz
Compression mode : Lossy
Stream size : 81.4 MiB (11%)
Alignment : Aligned on interleaves
Interleave, duration : 42 ms (1.00 video frame)
Interleave, preload duration : 504 ms
Writing library : LAME3.98r
Encoding settings : -m s -V 4 -q 2 -lowpass 17 -b 128



Скачать Увлечение.The.Crush.(Алан.Шапиро).[1993.триллер.драма.HDTVRip].[DVO].torrent без регистрации
Золото ЗОЛОТАЯ РАЗДАЧА! СКАЧАННОЕ НЕ ЗАСЧИТЫВАЕТСЯ! Золото
Дата: Зарегистрирован   [ Тип: внутренний ] Как тут cкачать?
MAGNET ссылка
MAGNET ссылка


Скачать .torrent

15 KB

Статус: проверено DHT
Скачан: торрент - 105 раз, раздача полностью - 11 раз
Размер: 745 MB
Оценка:  - (Голосов: 0)
Поблагодарили: 1
Поделиться ссылкой на эту раздачу с друзьями:
В контактеFacebookОдноклассникиTwitterLivejournalМой МирLiveinternet
 

 
Показать сообщения:    


Вы не можете начинать темы
Вы не можете отвечать на сообщения
Вы не можете редактировать свои сообщения
Вы не можете удалять свои сообщения
Вы не можете голосовать в опросах
Вы не можете прикреплять файлы к сообщениям
Вы можете скачивать файлы