Loading...
Error

Скачать Мои маленькие влюбленные / Мои первые увлечения / Mes petites amoureuses (Жан Эсташ) [1974, драма, DVDRip-AVC] [VO]+[Оригинал] торрент без регистрации

 
Статистика раздачи
Размер:  1,46 GB   |    Скачан:  122 раза
Сидов:  1  [  0 KB/s  ]  
 
Автор Сообщение

Marsianka

[] 


Мои маленькие влюблённые / Мои первые увлечения / Mes petites amoureuses

Год выхода: 1974
Жанр: драма
Режиссер: Жан Эсташ / Jean Eustache
В ролях: Мартин Лоб, Жаклин Дюфранн, Жак Ромейн, Ингрид Кавен, Роджер Рицци, Энн Строка, Жан-Жак Бьян и др.

О фильме: Фильм «Мои первые увлечения» Жана Эсташа запечатлевает несколько эпизодов из жизни мальчика/подростка, вступающего во взрослый мир с интересом на лице и страхом в своих глазах. Первые позывы сексуального влечения, которые дают знать о себе во время церковного причастия; тяга к знаниям, которая разбивается о прозу городской жизни, требующую променять учебу в колледже на работу в мастерской; поездки на танцы с друзьями и первый, невинно-неудачный любовный опыт с девушкой; взгляд матери, холодный и чужой, разрушающий детские иллюзии героя; наконец, парки, аллеи, лавочки, кинотеатры и бесцельные прогулки, столь характерные для такого наблюдателя за жизнью как Жан Эсташ складываются в непрерывный поток комично-трогательных ситуаций, в картину экзистенциальной растерянности, в фильм о малозаметных, но значимых нюансах жизни. Главный герой редко улыбается и почти никогда не смеется он лишь жаждет жизни (с начала как мальчик из деревни городской; позже, оказавшись в городе, иной, отличной от рутинной работы ради проживания), но неизменно наблюдает за ней со стороны.
В некотором роде «Мои первые увлечения» можно считать «приквелом» к «Мамочке и шлюхе». Герой фильма еще не обрел опыт экстатического разочарования неудачи майской революции, но он уже к нему готов: не столько презрение, сколько безразличие сквозит в мальчишеском взгляде в отношении окружающей его взрослой жизни. Причем атмосфера фильма вызывает в памяти на столько «М. и Ш.», сколько более раннюю работу режиссера «Дед Мороз с голубыми глазами», в которой еще совсем юный Жан-Пьер Лео растерянным взглядом и суетливым поведением во многом задал основную интонацию кинематографа Эсташа чувство утраты еще не обретенного опыта настоящей жизни. В фильме «Мои первые увлечения» этот мотив звучит особенно пронзительно на глазах у зрителей детская непосредственность восприятия жизни оказывается бессильной и бесполезной перед лицом угрозы взросления. Y lperry



Выпущено: Франция / Elite Films, Gala
Продолжительность: 01:57:58
Звук:
Озвучивание: Одноголосое закадровое -acolith
Перевод: n_mambasa
Оригинальная аудиодорожка: французский

Кодек: x264
Качество: DVDRip-AVC
Видео: 720x544 (4:3), 25 fps, AVC, 1390 kbps avg, 0.142 bit/pixel
Аудио#1:Rus: 48 kHz, AC3 Dolby Digital, 2/0 (L,R) ch, ~192 kbps
Аудио#2:Fran: 48 kHz, AC3 Dolby Digital, 2/0 (L,R) ch, ~192 kbps

Общее
Уникальный идентификатор : 243255690888364967589554717034370477181 (0xB70157883ACFAFCBA859A3A463F6AC7D)
Полное имя: Moi.pervie.yvle4enij.1974.x264.DVDRip-AVC_SergV.mkv
Формат : Matroska
Версия формата : Version 4 / Version 2
Размер файла : 1,46 Гбайт
Продолжительность : 1 ч. 57 м.
Общий поток : 1776 Кбит/сек
Дата кодирования : UTC 2013-01-31 17:12:25
Программа кодирования : mkvmerge v6.0.0 ('Coming Up For Air') built on Jan 20 2013 09:52:00
Библиотека кодирования : libebml v1.3.0 + libmatroska v1.4.0

Видео
Идентификатор : 1
Формат : AVC
Формат/Информация : Advanced Video Codec
Профиль формата : High@L4.1
Параметр CABAC формата : Да
Параметр ReFrames формата : 16 кадров
Идентификатор кодека : V_MPEG4/ISO/AVC
Продолжительность : 1 ч. 57 м.
Битрейт : 1390 Кбит/сек
Ширина : 720 пикселей
Высота : 544 пикселя
Соотношение сторон : 4:3
Режим частоты кадров : Постоянный
Частота кадров : 25,000 кадров/сек
Цветовое пространство : YUV
Субдискретизация насыщенности : 4:2:0
Битовая глубина : 8 бит
Тип развёртки : Прогрессивная
Бит/(Пиксели*Кадры) : 0.142
Размер потока : 1,12 Гбайт (76%)
Библиотека кодирования : x264 core 125 r2208 d9d2288
Настройки программы : cabac=1 / ref=16 / deblock=1:-1:1 / analyse=0x3:0x133 / me=umh / subme=10 / psy=1 / psy_rd=1.00:0.15 / mixed_ref=1 / me_range=24 / chroma_me=1 / trellis=2 / 8x8dct=1 / cqm=0 / deadzone=21,11 / fast_pskip=1 / chroma_qp_offset=-3 / threads=2 / lookahead_threads=1 / sliced_threads=0 / nr=0 / decimate=1 / interlaced=0 / bluray_compat=0 / constrained_intra=0 / bframes=8 / b_pyramid=2 / b_adapt=2 / b_bias=0 / direct=3 / weightb=1 / open_gop=0 / weightp=2 / keyint=250 / keyint_min=25 / scenecut=40 / intra_refresh=0 / rc_lookahead=60 / rc=2pass / mbtree=1 / bitrate=1390 / ratetol=1.0 / qcomp=0.60 / qpmin=0 / qpmax=51 / qpstep=4 / cplxblur=20.0 / qblur=0.5 / ip_ratio=1.40 / aq=1:1.00
Default : Да
Forced : Нет

Аудио #1
Идентификатор : 2
Формат : AC-3
Формат/Информация : Audio Coding 3
Расширение режима : CM (complete main)
Параметр Endianness формата : Big
Идентификатор кодека : A_AC3
Продолжительность : 1 ч. 57 м.
Вид битрейта : Постоянный
Битрейт : 192 Кбит/сек
Каналы : 2 канала
Расположение каналов : Front: L R
Частота : 48,0 КГц
Битовая глубина : 16 бит
Метод сжатия : С потерями
Размер потока : 162 Мбайт (11%)
Default : Да
Forced : Нет

Аудио #2
Идентификатор : 3
Формат : AC-3
Формат/Информация : Audio Coding 3
Расширение режима : CM (complete main)
Параметр Endianness формата : Big
Идентификатор кодека : A_AC3
Продолжительность : 1 ч. 57 м.
Вид битрейта : Постоянный
Битрейт : 192 Кбит/сек
Каналы : 2 канала
Расположение каналов : Front: L R
Частота : 48,0 КГц
Битовая глубина : 16 бит
Метод сжатия : С потерями
Размер потока : 162 Мбайт (11%)
Default : Нет
Forced : Нет
Релиз от:



Скачать Мои.маленькие.влюбленные.Мои.первые.увлечения.Mes.petites.amoureuses.(Жан.Эсташ).[1974.драма.DVDRip-AVC].[VO]+[Оригинал].torrent без регистрации
Золото ЗОЛОТАЯ РАЗДАЧА! СКАЧАННОЕ НЕ ЗАСЧИТЫВАЕТСЯ! Золото
Дата: Зарегистрирован   [ Тип: внутренний ] Как тут cкачать?
MAGNET ссылка
MAGNET ссылка


Скачать .torrent

15 KB

Статус: проверено DHT
Скачан: торрент - 122 раз, раздача полностью - 6 раз
Размер: 1,46 GB
Оценка:  - (Голосов: 0)
Поблагодарили: 1
Поделиться ссылкой на эту раздачу с друзьями:
В контактеFacebookОдноклассникиTwitterLivejournalМой МирLiveinternet
 

 
Показать сообщения:    


Вы не можете начинать темы
Вы не можете отвечать на сообщения
Вы не можете редактировать свои сообщения
Вы не можете удалять свои сообщения
Вы не можете голосовать в опросах
Вы не можете прикреплять файлы к сообщениям
Вы можете скачивать файлы