Loading...
Error

Скачать Кобра / Cobra (Джордж Пан Косматос) [1986, боевик, триллер, криминал, HDRip] [Dub] торрент без регистрации

 
Статистика раздачи
Размер:  1,45 GB   |    Скачан:  148 раз
Сидов:  1  [  0 KB/s  ]  
 
Автор Сообщение

Marsianka

[] 

Страна: США
Жанр: боевик, триллер, криминал
Год выпуска: 1986
Продолжительность: 01:27:03

Перевод: Профессиональный (дублированный)
Cубтитры: нет
Режиссер: Джордж Пан Косматос / George P. Cosmatos

В ролях: Сильвестр Сталлоне, Бриджитт Нильсен, Рени Сантони, Эндрю Робинсон, Брайан Томпсон, Джон Херцфелд, Ли Гарлингтон, Арт ЛаФлёр, Марко Родригес, Росс Ст. Филлип

Описание: Он «Кобра» штурмовой отряд полиции из одного человека, ему достаётся кровавая работёнка, за которую никто не хочет (или не осмеливается) взяться. Он выходит на след убийцы, за которым целая армия преступников-маньяков, стремящихся уничтожить свидетельницу их кровавой вакханалии. Но, к счастью, она попадает под защиту «Кобры».



Качество видео: HDRip
Формат видео: AVI
Исходник: BDRip 720p
Видео: 704x400 (1.76:1), 23.976 fps, XviD build 73 ~1934 kbps avg, 0.29 bit/pixe
Аудио: 48 kHz, AC3 Dolby Digital, 3/2 (L,C,R,l,r) + LFE ch, ~448 kbps

Sample

General
Complete name : D:Kobra.1986.HDRip.[Youtracker].by.Дядя_Лёша.avi
Format : AVI
Format/Info : Audio Video Interleave
File size : 1.45 GiB
Duration : 1h 27mn
Overall bit rate : 2 392 Kbps
Movie name : Kobra.1986.HDRip.[Youtracker].by.Дядя_Лёша
Writing application : VirtualDubMod 1.5.10.3 | www.virtualdub-fr.org || (build 2550/release)
Copyright : Youtracker

Video
ID : 0
Format : MPEG-4 Visual
Format profile : Advanced Simple@L5
Format settings, BVOP : 2
Format settings, QPel : No
Format settings, GMC : No warppoints
Format settings, Matrix : Custom
Codec ID : XVID
Codec ID/Hint : XviD
Duration : 1h 27mn
Bit rate : 1 934 Kbps
Width : 704 pixels
Height : 400 pixels
Display aspect ratio : 16:9
Frame rate : 23.976 fps
Color space : YUV
Chroma subsampling : 4:2:0
Bit depth : 8 bits
Scan type : Progressive
Compression mode : Lossy
Bits/(Pixel*Frame) : 0.286
Stream size : 1.18 GiB (81%)
Writing library : XviD 73

Audio
ID : 1
Format : AC-3
Format/Info : Audio Coding 3
Mode extension : CM (complete main)
Format settings, Endianness : Big
Codec ID : 2000
Duration : 1h 27mn
Bit rate mode : Constant
Bit rate : 448 Kbps
Channel(s) : 6 channels
Channel positions : Front: L C R, Side: L R, LFE
Sampling rate : 48.0 KHz
Bit depth : 16 bits
Compression mode : Lossy
Stream size : 279 MiB (19%)
Alignment : Split accross interleaves
Interleave, duration : 42 ms (1.00 video frame)
Interleave, preload duration : 500 ms
Раздача от:



Скачать Кобра.Cobra.(Джордж.Пан.Косматос).[1986.боевик.триллер.криминал.HDRip].[Dub].torrent без регистрации
Золото ЗОЛОТАЯ РАЗДАЧА! СКАЧАННОЕ НЕ ЗАСЧИТЫВАЕТСЯ! Золото
Дата: Зарегистрирован   [ Тип: внутренний ] Как тут cкачать?
MAGNET ссылка
MAGNET ссылка


Скачать .torrent

15 KB

Статус: проверено DHT
Скачан: торрент - 148 раз, раздача полностью - 46 раз
Размер: 1,45 GB
Оценка:  5 (Голосов: 1)
Поблагодарили: 3
Поделиться ссылкой на эту раздачу с друзьями:
В контактеFacebookОдноклассникиTwitterLivejournalМой МирLiveinternet
 

 
Показать сообщения:    


Вы не можете начинать темы
Вы не можете отвечать на сообщения
Вы не можете редактировать свои сообщения
Вы не можете удалять свои сообщения
Вы не можете голосовать в опросах
Вы не можете прикреплять файлы к сообщениям
Вы можете скачивать файлы