Loading...
Error

Скачать Бронсон / Bronson (Николас Виндинг Рёфн / Nicolas Winding Refn) [2008, боевик, триллер, драма, криминал, биография, BDRip] [AVO] (Ю.Сербин) + [DVO] (НТВ+) + [AVO] (Михаил Яроцкий (kyberpunk)) + Original Eng торрент без регистрации

 
Статистика раздачи
Размер:  2,18 GB   |    Скачан:  150 раз
Сидов:  1  [  0 KB/s  ]  
 
Автор Сообщение

leon030982

[] 

Бронсон / Bronson


Год выпуска: 2008
Страна: Великобритания
Жанр: боевик, триллер, драма, криминал, биография
Продолжительность: 01:32:28
Перевод: Авторский (одноголосый закадровый)[Ю.Сербин]
Перевод 2: Профессиональный (двухголосый закадровый)[НТВ+]
Перевод 3: Авторский (одноголосый закадровый)[Михаил Яроцкий (kyberpunk)]
Cубтитры: нет
Оригинальная аудиодорожка: английский

Режиссер: Николас Виндинг Рёфн / Nicolas Winding Refn

В ролях: Том Харди, Мэтт Кинг, Келли Адамс, Кэти Баркер, Edward Bennett-Coles, Джун Вуд, Нил Брум, Аманда Бертон, Уильям Дарк, Марк Девенпорт

Описание: История жизни британского заключённого Чарльза Бронсона, урождённого Майкла Гордона Питерсона из благополучной британской семьи среднего класса. Бронсон провёл «за решёткой» почти 40 лет, в одиночной камере за различные нарушения, и характеризуется как самый опасный британский преступник.

Автор рипа: ELmusic

Сэмпл: http://multi-up.com/861877

Качество видео: BDRip
Формат видео: AVI
Видео: XviD; 720X384; 2231 Кбит/сек; 24.000 кадра/сек; 0.336 Бит/(Пиксели*Кадры)
Аудио: 48 kHz, AC3, 6 ch, ~448.00 kbps avg |Одноголосый закадровый, Ю.Сербин|
Аудио 2: 48 kHz, AC3, 2/0 (L,R) ch, ~224.00 kbps avg |Двухголосый закадровый, НТВ+|
Аудио 3: 48 kHz, AC3, 2/0 (L,R) ch, ~224.00 kbps avg |Одноголосый закадровый, Михаил Яроцкий (kyberpunk)|
Аудио 4: 48 kHz, AC3, 2/0 (L,R) ch, ~224.00 kbps avg (Оригинал)
General
Complete name : Bronson.2008.BDRip.ELmusic.avi
Format : AVI
Format/Info : Audio Video Interleave
Format profile : OpenDML
File size : 2.18 GiB
Duration : 1h 32mn
Overall bit rate : 3 381 Kbps
Writing application : VirtualDubMod 1.5.10.2 (build 2540/release)
Writing library : VirtualDubMod build 2540/release
Video
ID : 0
Format : MPEG-4 Visual
Format profile : Advanced Simple@L5
Format settings, BVOP : 2
Format settings, QPel : No
Format settings, GMC : No warppoints
Format settings, Matrix : Custom
Codec ID : XVID
Codec ID/Hint : XviD
Duration : 1h 32mn
Bit rate : 2 231 Kbps
Width : 720 pixels
Height : 384 pixels
Display aspect ratio : 1.85:1
Frame rate : 24.000 fps
Color space : YUV
Chroma subsampling : 4:2:0
Bit depth : 8 bits
Scan type : Progressive
Compression mode : Lossy
Bits/(Pixel*Frame) : 0.336
Stream size : 1.44 GiB (66%)
Writing library : XviD 1.2.1 (UTC 2008-12-04)
Audio #1
ID : 1
Format : AC-3
Format/Info : Audio Coding 3
Mode extension : CM (complete main)
Format settings, Endianness : Big
Codec ID : 2000
Duration : 1h 32mn
Bit rate mode : Constant
Bit rate : 448 Kbps
Channel(s) : 6 channels
Channel positions : Front: L C R, Side: L R, LFE
Sampling rate : 48.0 KHz
Bit depth : 16 bits
Compression mode : Lossy
Stream size : 296 MiB (13%)
Alignment : Split accross interleaves
Interleave, duration : 42 ms (1.00 video frame)
Interleave, preload duration : 500 ms
Audio #2
ID : 2
Format : AC-3
Format/Info : Audio Coding 3
Mode extension : CM (complete main)
Format settings, Endianness : Big
Codec ID : 2000
Duration : 1h 32mn
Bit rate mode : Constant
Bit rate : 224 Kbps
Channel(s) : 2 channels
Channel positions : Front: L R
Sampling rate : 48.0 KHz
Bit depth : 16 bits
Compression mode : Lossy
Stream size : 148 MiB (7%)
Alignment : Split accross interleaves
Interleave, duration : 42 ms (1.00 video frame)
Interleave, preload duration : 500 ms
Audio #3
ID : 3
Format : AC-3
Format/Info : Audio Coding 3
Mode extension : CM (complete main)
Format settings, Endianness : Big
Codec ID : 2000
Duration : 1h 32mn
Bit rate mode : Constant
Bit rate : 224 Kbps
Channel(s) : 2 channels
Channel positions : Front: L R
Sampling rate : 48.0 KHz
Bit depth : 16 bits
Compression mode : Lossy
Stream size : 148 MiB (7%)
Alignment : Split accross interleaves
Interleave, duration : 42 ms (1.00 video frame)
Interleave, preload duration : 500 ms
Audio #4
ID : 4
Format : AC-3
Format/Info : Audio Coding 3
Mode extension : CM (complete main)
Format settings, Endianness : Big
Codec ID : 2000
Duration : 1h 32mn
Bit rate mode : Constant
Bit rate : 224 Kbps
Channel(s) : 2 channels
Channel positions : Front: L R
Sampling rate : 48.0 KHz
Bit depth : 16 bits
Compression mode : Lossy
Stream size : 148 MiB (7%)
Alignment : Split accross interleaves
Interleave, duration : 42 ms (1.00 video frame)
Interleave, preload duration : 500 ms



Скачать Бронсон.Bronson.(Николас.Виндинг.Рёфн.Nicolas.Winding.Refn).[2008.боевик.триллер.драма.криминал.биография.BDRip].[AVO].(Ю.Сербин).+.[DVO].(НТВ+).+.[AVO].(Михаил.Яроцкий.(kyberpunk)).+.Original.Eng.torrent без регистрации
Золото ЗОЛОТАЯ РАЗДАЧА! СКАЧАННОЕ НЕ ЗАСЧИТЫВАЕТСЯ! Золото
Дата: Зарегистрирован   [ Тип: внутренний ] Как тут cкачать?
MAGNET ссылка
MAGNET ссылка


Скачать .torrent

12 KB

Статус: проверено DHT
Скачан: торрент - 150 раз, раздача полностью - 119 раз
Размер: 2,18 GB
Оценка:  5 (Голосов: 1)
Поблагодарили: 2
Поделиться ссылкой на эту раздачу с друзьями:
В контактеFacebookОдноклассникиTwitterLivejournalМой МирLiveinternet
 

 
Показать сообщения:    


Вы не можете начинать темы
Вы не можете отвечать на сообщения
Вы не можете редактировать свои сообщения
Вы не можете удалять свои сообщения
Вы не можете голосовать в опросах
Вы не можете прикреплять файлы к сообщениям
Вы можете скачивать файлы