Loading...
Error

Скачать Звездный путь: Первый контакт / Star Trek: First Contact (Джонатан Фрейкс) [1996, фантастика, боевик, триллер, приключения слова, BDRip-AVC] [MVO]x3+[Оригинал]+[Sub] торрент без регистрации

 
Статистика раздачи
Размер:  2,1 GB   |    Скачан:  123 раза
Сидов:  1  [  0 KB/s  ]  
 
Автор Сообщение

Marsianka

[] 

Страна: США
Жанр: фантастика, боевик, триллер, приключения слова
Год выпуска: 1996
Продолжительность: 01:50:44
Перевод: Профессиональный (многоголосый, закадровый)Премьер Видео + Профессиональный (многоголосый, закадровый)SDI-Media + Профессиональный (многоголосый, закадровый)Первый канал + Оригинальный
Субтитры: русские, английские (Full + SDH)

Режиссер: Джонатан Фрейкс / Jonathan Frakes

В ролях: Патрик Стюарт (Captain Jean-Luc Picard), Джонатан Фрейкс (Commander William Riker, Holodeck Musician,), Брент Спайнер (Lt. Commander Data), ЛеВар Бёртон (Lt. Commander Geordi La Forge), Майкл Дорн (Lt. Commander Worf), Гейтс МакФэдден (Commander, Dr. Beverly Crusher), Марина Сиртис (Commander Deanna Troi), Элфри Вудард (Lily Sloane), Джеймс Кромуэлл (Dr. Zefram Cochrane), Элис Крайдж (Borg Queen), Майкл Хортон (Lieutenant Daniels), Нил МакДонаф (Lieutenant Hawk)
Описание: Восьмая часть всемирно известного сериала о приключениях бесстрашных звездолетчиков в далеком будущем. Посланцы враждебной инопланетной цивилизации проникают в прошлое, и первый контакт человечества с внеземным разумом, способный положить начало новой космической эры, оказывается под угрозой срыва. Перед экипажем легендарного космического корабля «Энтерпрайз» и его мужественным капитаном Пикардом стоит трудная и опасная задача - помешать осуществлению планов врага и спасти будущее Земли.


MPAA: PG-13 - Детям до 13 лет просмотр не желателен

Качество: BDRip
Контейнер: MKV

Видео: AVC, 1024x436 (2.35:1), 1685 kbps, 23.976 fps, 0.157 bpp

Семпл
Аудио 1: русский / AC3 / 2.0 / 48 kHz / 192 kbps
Аудио 2: русский / AC3 / 2.0 / 48 kHz / 192 kbps
Аудио 3: русский / AC3 / 2.0 / 48 kHz / 192 kbps
Аудио 4: английский / AC3 / 5.1 / 48 kHz / 448 kbps / 16 bit
Навигация по главам: есть


General
Unique ID : 201142341527263963785813361359748242444 (0x97529B19D8F8806F9A1061B6E6569C0C)
Complete name : C:TorrentZvezdnyj.Putb.08.BDRipAVC.mkv
Format : Matroska
Format version : Version 2
File size : 2.10 GiB
Duration : 1h 50mn
Overall bit rate : 2 710 Kbps
Movie name : = Звездный путь: Первый контакт / Star Trek: First Contact BDRip by SC Kosmos =
Encoded date : UTC 2013-05-17 13:25:30
Writing application : mkvmerge v3.3.0 ('Language') gebaut am Mar 24 2010 14:59:24
Writing library : libebml v0.8.0 + libmatroska v0.9.0

Video
ID : 1
Format : AVC
Format/Info : Advanced Video Codec
Format profile : High@L4.1
Format settings, CABAC : Yes
Format settings, ReFrames : 12 frames
Codec ID : V_MPEG4/ISO/AVC
Duration : 1h 50mn
Bit rate : 1 685 Kbps
Width : 1 024 pixels
Height : 436 pixels
Display aspect ratio : 2.35:1
Frame rate : 23.976 fps
Color space : YUV
Chroma subsampling : 4:2:0
Bit depth : 8 bits
Scan type : Progressive
Bits/(Pixel*Frame) : 0.157
Stream size : 1.26 GiB (60%)
Title : Звездный путь: Первый контакт / Star Trek: First Contact BDRip by SC Kosmos
Writing library : x264 core 132 r2310 76a5c3a
Encoding settings : cabac=1 / ref=12 / deblock=1:-2:-2 / analyse=0x3:0x112 / me=umh / subme=10 / psy=1 / psy_rd=1.00:0.15 / mixed_ref=1 / me_range=32 / chroma_me=1 / trellis=2 / 8x8dct=1 / cqm=0 / deadzone=21,11 / fast_pskip=1 / chroma_qp_offset=-3 / threads=12 / lookahead_threads=1 / sliced_threads=0 / nr=0 / decimate=1 / interlaced=0 / bluray_compat=0 / constrained_intra=0 / bframes=10 / b_pyramid=2 / b_adapt=1 / b_bias=0 / direct=3 / weightb=1 / open_gop=0 / weightp=1 / keyint=240 / keyint_min=23 / scenecut=40 / intra_refresh=0 / rc_lookahead=40 / rc=2pass / mbtree=0 / bitrate=1685 / ratetol=1.0 / qcomp=0.60 / qpmin=0 / qpmax=69 / qpstep=4 / cplxblur=20.0 / qblur=0.5 / vbv_maxrate=62500 / vbv_bufsize=78125 / nal_hrd=none / ip_ratio=1.40 / pb_ratio=1.30 / aq=1:1.00 / zones=151800,159303,b=0.27
Language : English
Default : No
Forced : No

Audio #1
ID : 2
Format : AC-3
Format/Info : Audio Coding 3
Format profile : Dolby Digital
Mode extension : CM (complete main)
Codec ID : A_AC3
Duration : 1h 50mn
Bit rate mode : Constant
Bit rate : 192 Kbps
Channel(s) : 2 channels
Channel positions : Front: L R
Sampling rate : 48.0 KHz
Bit depth : 16 bits
Compression mode : Lossy
Stream size : 152 MiB (7%)
Title : MVO [Премьер Видео]
Language : Russian
Default : Yes
Forced : No

Audio #2
ID : 3
Format : AC-3
Format/Info : Audio Coding 3
Format profile : Dolby Digital
Mode extension : CM (complete main)
Codec ID : A_AC3
Duration : 1h 50mn
Bit rate mode : Constant
Bit rate : 192 Kbps
Channel(s) : 2 channels
Channel positions : Front: L R
Sampling rate : 48.0 KHz
Bit depth : 16 bits
Compression mode : Lossy
Stream size : 152 MiB (7%)
Title : MVO [SDI Media]
Language : Russian
Default : No
Forced : No

Audio #3
ID : 4
Format : AC-3
Format/Info : Audio Coding 3
Format profile : Dolby Digital
Mode extension : CM (complete main)
Codec ID : A_AC3
Duration : 1h 50mn
Bit rate mode : Constant
Bit rate : 192 Kbps
Channel(s) : 2 channels
Channel positions : Front: L R
Sampling rate : 48.0 KHz
Bit depth : 16 bits
Compression mode : Lossy
Stream size : 152 MiB (7%)
Title : MVO [Первый Канал]
Default : No
Forced : No

Audio #4
ID : 5
Format : AC-3
Format/Info : Audio Coding 3
Mode extension : CM (complete main)
Codec ID : A_AC3
Duration : 1h 50mn
Bit rate mode : Constant
Bit rate : 448 Kbps
Channel(s) : 6 channels
Channel positions : Front: L C R, Side: L R, LFE
Sampling rate : 48.0 KHz
Bit depth : 16 bits
Compression mode : Lossy
Stream size : 355 MiB (17%)
Language : English
Default : No
Forced : No

Text #1
ID : 6
Format : UTF-8
Codec ID : S_TEXT/UTF8
Codec ID/Info : UTF-8 Plain Text
Language : Russian
Default : Yes
Forced : No

Text #2
ID : 7
Format : UTF-8
Codec ID : S_TEXT/UTF8
Codec ID/Info : UTF-8 Plain Text
Language : English
Default : No
Forced : No

Text #3
ID : 8
Format : UTF-8
Codec ID : S_TEXT/UTF8
Codec ID/Info : UTF-8 Plain Text
Title : SDH
Language : English
Default : No
Forced : No

Menu
00:00:00.000 : en:Chapter 01
00:02:48.668 : en:Chapter 02
00:04:45.243 : en:Chapter 03
00:07:30.783 : en:Chapter 04
00:11:52.628 : en:Chapter 05
00:13:54.917 : en:Chapter 06
00:17:21.957 : en:Chapter 07
00:22:25.635 : en:Chapter 08
00:24:24.838 : en:Chapter 09
00:25:52.884 : en:Chapter 10
00:27:08.752 : en:Chapter 11
00:28:10.063 : en:Chapter 12
00:31:14.289 : en:Chapter 13
00:37:50.935 : en:Chapter 14
00:39:16.354 : en:Chapter 15
00:43:52.171 : en:Chapter 16
00:46:13.604 : en:Chapter 17
00:49:17.579 : en:Chapter 18
00:55:11.850 : en:Chapter 19
00:58:20.121 : en:Chapter 20
01:01:31.729 : en:Chapter 21
01:05:16.287 : en:Chapter 22
01:13:52.261 : en:Chapter 23
01:16:24.079 : en:Chapter 24
01:23:20.704 : en:Chapter 25
01:25:36.548 : en:Chapter 26
01:28:45.153 : en:Chapter 27
01:33:33.774 : en:Chapter 28
01:37:31.637 : en:Chapter 29
01:39:59.827 : en:Chapter 30
01:45:34.911 : en:Chapter 31

----------------------------------------------------
x264 [info]: frame I:1856 Avg QP:15.50 size: 57489
x264 [info]: frame P:67771 Avg QP:18.67 size: 14775
x264 [info]: frame B:89677 Avg QP:21.08 size: 3230
----------------------------------------------------





Скачать Звездный.путь.Первый.контакт.Star.Trek.First.Contact.(Джонатан.Фрейкс).[1996.фантастика.боевик.триллер.приключения.слова.BDRip-AVC].[MVO]x3+[Оригинал]+[Sub].torrent без регистрации
Золото ЗОЛОТАЯ РАЗДАЧА! СКАЧАННОЕ НЕ ЗАСЧИТЫВАЕТСЯ! Золото
Дата: Зарегистрирован   [ Тип: внутренний ] Как тут cкачать?
MAGNET ссылка
MAGNET ссылка


Скачать .torrent

11 KB

Статус: проверено DHT
Скачан: торрент - 123 раз, раздача полностью - 27 раз
Размер: 2,1 GB
Оценка:  5 (Голосов: 2)
Поблагодарили: 4
Поделиться ссылкой на эту раздачу с друзьями:
В контактеFacebookОдноклассникиTwitterLivejournalМой МирLiveinternet
 

 
Показать сообщения:    


Вы не можете начинать темы
Вы не можете отвечать на сообщения
Вы не можете редактировать свои сообщения
Вы не можете удалять свои сообщения
Вы не можете голосовать в опросах
Вы не можете прикреплять файлы к сообщениям
Вы можете скачивать файлы