Loading...
Error

Скачать Убийцы / Несчастный случай / Accident / Yi ngoi (Поу-Сои Чинг) [2009, триллер, HDRip-AVC] [AVO]+[Sub] торрент без регистрации

 
Статистика раздачи
Размер:  1,45 GB   |    Скачан:  112 раз
Сидов:  1  [  0 KB/s  ]  
 
Автор Сообщение

Marsianka

[] 

Убийцы / Несчастный случай / Accident / Yi ngoi (2009) HDRip-AVC

Информация о фильме
Название: Убийцы / Несчастный случай
Оригинальное название: Accident / Yi ngoi
Год выхода: 2009
Жанр: триллер
Режиссер: Поу-Сои Чинг

В ролях: Луис Ку, Ричи Рен, Шуй-Фан Фунг, Мишель Йе, Сует Лам, Александр Чан, Юджин Хан, Моника Мок...

О фильме: Гpyппa нaeмныx yбийц вo глaвe c Xo, пo пpoзвищy Moзг, yбивaют, пoдcтpoив цeпь нecвязныx co cтopoны coбытий, пpивoдящиx к нecчacтнoмy cлyчaю и cмepти иx мишeни. Taкиe дeтaльнo пpoдyмaнныe и тщaтeльнo paccчитaнныe yбийcтвa нeвoзмoжнo oтcлeдить. Ho вo вpeмя oчepeднoй oпepaции чтo-тo идeт нe тaк и oдин из кoмaнды пoгибaeт. Cлyчaйнocть? Oднaкo Xo cлишкoм xopoшo знaeт, чтo любyю cлyчaйнocть мoжнo cплaниpoвaть.



Страна: Гонконг
Продолжительность: 01:26:54
Перевод: Авторский (одноголосый закадровый) Ю. Сербин

Файл
Кодек: x.264
Качество: HDRip-AVC
Видео: 1024x432 (2,40:1), 24 fps, 1942 kbps, 0.183 bit/pixel
Звук: 48 kHz, AC3 Dolby Digital, 6 ch, ~448.00 kbps
Субтитры: Английские (отключаемые)

&
Общее
Уникальный идентификатор : 205539129466103633055677512076214279234 (0x9AA1657BA9DBA9CEB1AFC3E390E61C42)
Полное имя : D:Yi ngoi.2009.HDRip-AVC.mkv
Формат : Matroska
Версия формата : Version 4 / Version 2
Размер файла : 1,45 Гбайт
Продолжительность : 1 ч. 26 м.
Общий поток : 2391 Кбит/сек
Название фильма : Убийцы / Несчастный случай / Accident / Yi ngoi (2009) HDRip-AVC rip by Rulya74
Дата кодирования : UTC 2013-05-19 05:02:35
Программа кодирования : mkvmerge v6.2.0 ('Promised Land') built on Apr 28 2013 12:22:01
Библиотека кодирования : libebml v1.3.0 + libmatroska v1.4.0

Видео
Идентификатор : 1
Формат : AVC
Формат/Информация : Advanced Video Codec
Профиль формата : High@L4.1
Параметр CABAC формата : Да
Параметр ReFrames формата : 11 кадров
Идентификатор кодека : V_MPEG4/ISO/AVC
Продолжительность : 1 ч. 26 м.
Битрейт : 1942 Кбит/сек
Ширина : 1024 пикселя
Высота : 432 пикселя
Соотношение сторон : 2,40:1
Режим частоты кадров : Постоянный
Частота кадров : 24,000 кадра/сек
Цветовое пространство : YUV
Субдискретизация насыщенности : 4:2:0
Битовая глубина : 8 бит
Тип развёртки : Прогрессивная
Бит/(Пиксели*Кадры) : 0.183
Размер потока : 1,15 Гбайт (79%)
Библиотека кодирования : x264 core 132 r2310 76a5c3a
Настройки программы : cabac=1 / ref=11 / deblock=1:-3:-2 / analyse=0x3:0x113 / me=umh / subme=10 / psy=1 / psy_rd=1.30:0.09 / mixed_ref=1 / me_range=32 / chroma_me=1 / trellis=2 / 8x8dct=1 / cqm=0 / deadzone=21,11 / fast_pskip=0 / chroma_qp_offset=-3 / threads=4 / lookahead_threads=1 / sliced_threads=0 / nr=0 / decimate=1 / interlaced=0 / bluray_compat=0 / constrained_intra=0 / bframes=8 / b_pyramid=2 / b_adapt=2 / b_bias=0 / direct=3 / weightb=1 / open_gop=0 / weightp=2 / keyint=240 / keyint_min=22 / scenecut=40 / intra_refresh=0 / rc_lookahead=40 / rc=2pass / mbtree=1 / bitrate=1942 / ratetol=1.0 / qcomp=0.60 / qpmin=0 / qpmax=69 / qpstep=4 / cplxblur=20.0 / qblur=0.5 / vbv_maxrate=62500 / vbv_bufsize=78125 / nal_hrd=none / ip_ratio=1.40 / aq=1:1.00
Default : Да
Forced : Нет

Аудио
Идентификатор : 2
Формат : AC-3
Формат/Информация : Audio Coding 3
Расширение режима : CM (complete main)
Параметр Endianness формата : Big
Идентификатор кодека : A_AC3
Продолжительность : 1 ч. 26 м.
Вид битрейта : Постоянный
Битрейт : 448 Кбит/сек
Каналы : 6 каналов
Расположение каналов : Front: L C R, Side: L R, LFE
Частота : 48,0 КГц
Битовая глубина : 16 бит
Метод сжатия : С потерями
Размер потока : 278 Мбайт (19%)
Заголовок : Авторский (Ю. Сербин)
Язык : Russian
Default : Да
Forced : Нет

Текст
Идентификатор : 3
Формат : UTF-8
Идентификатор кодека : S_TEXT/UTF8
Идентификатор кодека/Информация : UTF-8 Plain Text
Язык : English
Default : Да
Forced : Нет



Скачать Убийцы.Несчастный.случай.Accident.Yi.ngoi.(Поу-Сои.Чинг).[2009.триллер.HDRip-AVC].[AVO]+[Sub].torrent без регистрации
Золото ЗОЛОТАЯ РАЗДАЧА! СКАЧАННОЕ НЕ ЗАСЧИТЫВАЕТСЯ! Золото
Дата: Зарегистрирован   [ Тип: внутренний ] Как тут cкачать?
MAGNET ссылка
MAGNET ссылка


Скачать .torrent

15 KB

Статус: проверено DHT
Скачан: торрент - 112 раз, раздача полностью - 13 раз
Размер: 1,45 GB
Оценка:  - (Голосов: 0)
Поблагодарили: 6
Поделиться ссылкой на эту раздачу с друзьями:
В контактеFacebookОдноклассникиTwitterLivejournalМой МирLiveinternet
 

 
Показать сообщения:    


Вы не можете начинать темы
Вы не можете отвечать на сообщения
Вы не можете редактировать свои сообщения
Вы не можете удалять свои сообщения
Вы не можете голосовать в опросах
Вы не можете прикреплять файлы к сообщениям
Вы можете скачивать файлы