Loading...
Error

Скачать Счастливый конец / Happy Endings (Полный 3-ий сезон) (Джеффри Мэлман, Энтони Руссо, Джо Руссо) [2013, Комедия, WEB-DLRip] [MVO] (Fox Life) торрент без регистрации

 
Статистика раздачи
Размер:  4,31 GB   |    Скачан:  141 раз
Сидов:  1  [  0 KB/s  ]  
 
Автор Сообщение

leon030982

[] 

Счастливый конец / Happy Endings


Год выпуска: 2012-2013
Страна: США
Жанр: Комедия
Продолжительность: ~ 00:22:00
Перевод: Профессиональный (многоголосый закадровый)[Fox Life]
Русские субтитры: нет
Субтитры: отсутствуют
Режиссёр: Джеффри Мэлман, Энтони Руссо, Джо Руссо
В ролях: Захари Найтон, Элиша Катберт, Элиза Куп, Адам Палли, Кэйси Уилсон, Дэймон Уайанс мл., Стефен Джуарино, Трэвис Ван Винкл, Анжелика Кебрал
Описание: Когда пара расстается, главный вопрос — с кем останутся друзья? В этой современной комедии разрыв отношений между двумя людьми осложнит жизнь их друзей и поставит их перед выбором. Когда в твоей жизни наступает тяжелый период… держись крепче за людей, которых ты любишь.
У каждого круга друзей есть свой центр притяжения. На протяжении многих лет идеальная пара Дейв и Алекс привлекала друзей и держала их вместе. Теперь, когда они расстались, есть ли у остальных причины оставаться с ними? Или Макс, Брэд, Джейн и Пэнни должны выбрать какую-то одну сторону? Внезапно любое событие стало похоже на переговоры. Например, кто отправится в ежегодную поездку на лыжах? На много вопросов еще придется ответить, но эта группа была вместе так долго, что каким-то образом, мало-помалу, им нужно будет решить как остаться вместе, несмотря на их расколовшееся ядро. То, что Дейв и Алекс согласились остаться друзьями, безусловно, помогает. Но впереди еще много различных осложнений. Например, как быть с чувствами Пэнни к Дейву, которые она уже давно старалась подавлять? Сколько нужно ждать, чтобы назначить свидание бывшему жениху своей подруги?


Релиз:
Работа со звуком: Mazay4
Рип: Мосенька
Сэмпл: http://sendfile.su/756251
Качество: WEB-DLRip
Формат: AVI
Видео кодек: XviD
Аудио кодек: MP3
Видео: 656x368 (16/9), 23.976 fps, 1 029 Kbps, 0.188 bit/pixel
Аудио (rus): 48 kHz, 2 ch, 128 Кбит/сек
Аудио (eng): 48 kHz, 2 ch, 128 Кбит/сек
01. Cazsh Dummy Spillionaires
02. Sabado Free-Gante
03. Boys II Menorah
04. More Like Stanksgiving
05. P&P Romance Factory
06. To Serb with Love
07. No-Ho-Ho
08. Fowl Play/Date
09. Ordinary Extraordinary Love
10. The Ex Factor
11. The Marry Prankster
12. Our Best Friend's Wedding
13. In the Heat of the Noche
14. The Straight Dope
15. The Incident
16. Bros Before Bros
17. She Got Game Night
18. The Storm Before the Calm
19. The Ballad of Lon Sarofsky
20. Unsabotagable
21. Deuce Babylove 2: Electric Babydeuce
22. Brothas & Sisters
Общее
Полное имя : I:\РАЗДАЧИ НА TORRENTS.RU\Счастливый конец (Сезон 3) - Fox Life\happy.endings.s03e01.web-dlrip.avi
Формат : AVI
Формат/Информация : Audio Video Interleave
Размер файла : 200 Мбайт
Продолжительность : 21 м.
Общий поток : 1299 Кбит/сек
Программа кодирования : VirtualDubMod 1.5.10.3 | www.virtualdub-fr.org || (build 2550/release)
Библиотека кодирования : VirtualDubMod build 2550/release
Видео
Идентификатор : 0
Формат : MPEG-4 Visual
Профиль формата : Advanced Simple@L5
Параметр BVOP формата : 1
Параметр QPel формата : Нет
Параметр GMC формата : Без точки перехода
Параметр матрицы формата : Выборочная
Идентификатор кодека : XVID
Идентификатор кодека/Подсказка : XviD
Продолжительность : 21 м.
Битрейт : 1029 Кбит/сек
Ширина : 656 пикселей
Высота : 368 пикселей
Соотношение сторон : 16:9
Частота кадров : 23,976 кадра/сек
Цветовое пространство : YUV
Субдискретизация насыщенности : 4:2:0
Битовая глубина : 8 бит
Тип развёртки : Прогрессивная
Метод сжатия : С потерями
Бит/(Пиксели*Кадры) : 0.178
Размер потока : 159 Мбайт (79%)
Библиотека кодирования : XviD 63
Аудио #1
Идентификатор : 1
Формат : MPEG Audio
Версия формата : Version 1
Профиль формата : Layer 3
Режим : Joint stereo
Расширение режима : MS Stereo
Идентификатор кодека : 55
Идентификатор кодека/Подсказка : MP3
Продолжительность : 21 м.
Вид битрейта : Постоянный
Битрейт : 128 Кбит/сек
Каналы : 2 канала
Частота : 48,0 КГц
Метод сжатия : С потерями
Размер потока : 19,7 Мбайт (10%)
Выравнивание : Соединение по промежуткам
Продолжительность промежутка : 42 мс. (1,00 видеокадр)
Время предзагрузки промежутка : 504 мс.
Библиотека кодирования : LAME3.98r
Настройки программы : -m j -V 4 -q 0 -lowpass 17 -b 128
Аудио #2
Идентификатор : 2
Формат : MPEG Audio
Версия формата : Version 1
Профиль формата : Layer 3
Режим : Joint stereo
Расширение режима : MS Stereo
Идентификатор кодека : 55
Идентификатор кодека/Подсказка : MP3
Продолжительность : 21 м.
Вид битрейта : Постоянный
Битрейт : 128 Кбит/сек
Каналы : 2 канала
Частота : 48,0 КГц
Метод сжатия : С потерями
Размер потока : 19,7 Мбайт (10%)
Выравнивание : Соединение по промежуткам
Продолжительность промежутка : 42 мс. (1,00 видеокадр)
Время предзагрузки промежутка : 504 мс.
Библиотека кодирования : LAME3.98r
Настройки программы : -m j -V 4 -q 0 -lowpass 17 -b 128
Внимание! Раздача ведётся путём добавления новых серий; при каждом добавлении создаётся новый торрент. Чтобы начать докачку новой серии, пользователям необходимо сделать следующее:
(1) остановить скачивание,
(2) удалить старый торрент у себя из клиента (старые серии удалять не надо),
(3) скачать новый торрент и запустить его у себя в клиенте вместо старого, при этом указать клиенту путь в старую папку куда и должно происходить скачивание новых серий.
Ваш клиент при этом должен произвести хеширование (проверку) старой папки (если не производит сам - помогите ему сделать это), и будет докачивать только те серии которых у вас ещё нет. Старые серии при этом не удаляются, а продолжают раздаваться!
Eсли вы уже удалили старые серии, то предотвратить повторную закачку старых серий можно, отжав галочку в соответствующих местах при запуске нового торрента. По возможности, желательно не удалять старые серии как можно дольше чтобы релизёр не столько продолжал раздавать старые серии, а смог сконцентрироваться на новых.



Скачать Счастливый.конец.Happy.Endings.(Полный.3-ий.сезон).(Джеффри.Мэлман.Энтони.Руссо.Джо.Руссо).[2013.Комедия.WEB-DLRip].[MVO].(Fox.Life).torrent без регистрации
Золото ЗОЛОТАЯ РАЗДАЧА! СКАЧАННОЕ НЕ ЗАСЧИТЫВАЕТСЯ! Золото
Дата: Зарегистрирован   [ Тип: внутренний ] Как тут cкачать?
MAGNET ссылка
MAGNET ссылка


Скачать .torrent

13 KB

Статус: проверено DHT
Скачан: торрент - 141 раз, раздача полностью - 7 раз
Размер: 4,31 GB
Оценка:  5 (Голосов: 1)
Поблагодарили: 0
Поделиться ссылкой на эту раздачу с друзьями:
В контактеFacebookОдноклассникиTwitterLivejournalМой МирLiveinternet
 

 

leon030982

[] 

раздача обновлена az
 

leon030982

[] 

обновлено az
 
Показать сообщения:    


Вы не можете начинать темы
Вы не можете отвечать на сообщения
Вы не можете редактировать свои сообщения
Вы не можете удалять свои сообщения
Вы не можете голосовать в опросах
Вы не можете прикреплять файлы к сообщениям
Вы можете скачивать файлы