Loading...
Error

Скачать Замок (Алексей Балабанов) [1994, драма, DVDRip-AVC] (Temperest) торрент без регистрации

 
Статистика раздачи
Размер:  2,45 GB   |    Скачан:  151 раз
Сидов:  1  [  0 KB/s  ]  
 
Автор Сообщение

Shara

[] 

Информация о фильме
Название: Замок
Год выхода: 1994
Жанр: Драма
Режиссер: Алексей Балабанов
В ролях: Николай Стоцкий Светлана Письмиченко Анвар Либабов Виктор Сухоруков Игорь Шибанов Андрей Смирнов Владислав Демченко Болот Бейшеналиев Светлана Свирко Ольга Антонова

О фильме:
Господин Землемер приглашен Замком для ведения соответствующих работ. Прибыв в Деревню, он с удивлением обнаруживает, что здесь его никто не ждет. Попытки доказать свои права наталкивается на стену непонимания. Желание проникнуть в загадочный Замок все сильнее овладевает героем


Страна: Россия
Студия: СТВ
Продолжительность: 01:49:13
Перевод: не требуется

Файл
Кодек: h.264
Качество: DVDRip-AVC
Видео: 704x560 (4:3) @ 746x560 (анаморф), 25.000 fps, AVC, ~2765 Kbps, 0.281 bits/pixel
Звук: Русский, 48.0 KHz, AC3, 6 ch, 448 Kbps
Субтитры: нет

Памяти Алексея Балабанова

Исходник R5, увы, лучшего качества видео нет.
Общее
Уникальный идентификатор : 246567084129294668103925076304908301548 (0xB97F17D2F16BDF36915AFF9390ECB4EC)
Полное имя : D:FilmsZamok.1994.DVDRip-AVC.mkv
Формат : Matroska
Версия формата : Version 4 / Version 2
Размер файла : 2,45 Гбайт
Продолжительность : 1 ч. 49 м.
Общий поток : 3215 Кбит/сек
Дата кодирования : UTC 2013-05-20 18:04:57
Программа кодирования : mkvmerge v6.2.0 ('Promised Land') built on Apr 28 2013 12:22:01
Библиотека кодирования : libebml v1.3.0 + libmatroska v1.4.0

Видео
Идентификатор : 1
Формат : AVC
Формат/Информация : Advanced Video Codec
Профиль формата : High@L4.1
Параметр CABAC формата : Да
Параметр ReFrames формата : 16 кадров
Идентификатор кодека : V_MPEG4/ISO/AVC
Продолжительность : 1 ч. 49 м.
Битрейт : 2765 Кбит/сек
Ширина : 704 пикселя
Высота : 560 пикселей
Соотношение сторон : 4:3
Соотношение сторон в оригинале : 4:3
Режим частоты кадров : Постоянный
Частота кадров : 25,000 кадров/сек
Цветовое пространство : YUV
Субдискретизация насыщенности : 4:2:0
Битовая глубина : 8 бит
Тип развёртки : Прогрессивная
Бит/(Пиксели*Кадры) : 0.281
Размер потока : 2,06 Гбайт (84%)
Библиотека кодирования : x264 core 130 r2273 b3065e6
Настройки программы : cabac=1 / ref=16 / deblock=1:0:0 / analyse=0x3:0x133 / me=umh / subme=10 / psy=1 / psy_rd=1.05:0.10 / mixed_ref=1 / me_range=32 / chroma_me=1 / trellis=2 / 8x8dct=1 / cqm=0 / deadzone=21,11 / fast_pskip=0 / chroma_qp_offset=-3 / threads=8 / lookahead_threads=2 / sliced_threads=0 / nr=0 / decimate=0 / interlaced=0 / bluray_compat=0 / constrained_intra=0 / bframes=11 / b_pyramid=2 / b_adapt=2 / b_bias=0 / direct=3 / weightb=1 / open_gop=0 / weightp=2 / keyint=250 / keyint_min=25 / scenecut=40 / intra_refresh=0 / rc=2pass / mbtree=0 / bitrate=2765 / ratetol=1.0 / qcomp=0.60 / qpmin=0 / qpmax=60 / qpstep=4 / cplxblur=20.0 / qblur=0.5 / ip_ratio=1.40 / pb_ratio=1.30 / aq=2:1.00
Default : Нет
Forced : Нет
Коэффициенты матрицы : BT.601

Аудио
Идентификатор : 2
Формат : AC-3
Формат/Информация : Audio Coding 3
Расширение режима : CM (complete main)
Параметр Endianness формата : Big
Идентификатор кодека : A_AC3
Продолжительность : 1 ч. 49 м.
Вид битрейта : Постоянный
Битрейт : 448 Кбит/сек
Каналы : 6 каналов
Расположение каналов : Front: L C R, Side: L R, LFE
Частота : 48,0 КГц
Битовая глубина : 16 бит
Метод сжатия : С потерями
Размер потока : 350 Мбайт (14%)
Язык : Russian
Default : Да
Forced : Нет

Меню
00:00:00.000 : en:Chapter 01
00:09:34.600 : en:Chapter 02
00:21:31.760 : en:Chapter 03
00:32:07.080 : en:Chapter 04
00:43:39.440 : en:Chapter 05
00:55:04.320 : en:Chapter 06
01:04:56.880 : en:Chapter 07
01:17:00.440 : en:Chapter 08
01:25:33.040 : en:Chapter 09
01:36:11.840 : en:Chapter 10
frame I:880 Avg QP:13.96 size: 45271
frame P:32639 Avg QP:16.49 size: 20953
frame B:130305 Avg QP:18.54 size: 11825
Релиз от: Temperest



Скачать Замок.(Алексей.Балабанов).[1994.драма.DVDRip-AVC].(Temperest).torrent без регистрации
Золото ЗОЛОТАЯ РАЗДАЧА! СКАЧАННОЕ НЕ ЗАСЧИТЫВАЕТСЯ! Золото
Дата: Зарегистрирован   [ Тип: внутренний ] Как тут cкачать?
MAGNET ссылка
MAGNET ссылка


Скачать .torrent

13 KB

Статус: проверено DHT
Скачан: торрент - 151 раз, раздача полностью - 41 раз
Размер: 2,45 GB
Оценка:  5 (Голосов: 1)
Поблагодарили: 4
Поделиться ссылкой на эту раздачу с друзьями:
В контактеFacebookОдноклассникиTwitterLivejournalМой МирLiveinternet
 

 
Показать сообщения:    


Вы не можете начинать темы
Вы не можете отвечать на сообщения
Вы не можете редактировать свои сообщения
Вы не можете удалять свои сообщения
Вы не можете голосовать в опросах
Вы не можете прикреплять файлы к сообщениям
Вы можете скачивать файлы