Loading...
Error

Скачать Виртуальность / Виртуозность / Virtuosity (Бретт Леонард) [1995, фантастика, боевик, триллер, HDTVRip] [AVO]+[DVO]x2 торрент без регистрации

 
Статистика раздачи
Размер:  2,18 GB   |    Скачан:  117 раз
Сидов:  1  [  0 KB/s  ]  
 
Автор Сообщение

Marsianka

[] 

Информация о фильме
Название: Виртуальность / Виртуозность
Оригинальное название: Virtuosity
Год выхода: 1995
Жанр: фантастика, боевик, триллер
Режиссер: Бретт Леонард / Brett Leonard
В ролях: Дензел Вашингтон, Келли Линч, Рассел Кроу, Стивен Спинелла, Уильям Форсайт, Луиза Флетчер, Уильям Фихтнер, Костас Мэндилор, Кевин Дж. О'Коннор, Кейли Куоко, Кристофер Мюррэй, Хайди Шанц

О фильме:
Его имя Сид 6.7. Он создан из двухсот отборных подонков, негодяев и психопатов, наделен интеллектом и хитростью самых знаменитых серийных убийц в истории человечества.
Сид 6,7 был специально придуман, как совершенное воплощение зла и жестокости, для особой компьютерной программы, помогающей полицейским ловить преступников. Но случилось непоправимое.
Сиду удалось сбежать из кибернетического пространства в реальный мир. Идеальный преступник был на свободе и жаждал преподать людям страшный урок
Единственным человеком, который встал на пути компьютерного садиста, оказался полицейский по имени Паркер Барнис. Но офицеру Барнису всегда приходилось иметь дело с бандитами из плоти и крови. Сможет ли он совладать с неуязвимым Сидом 6,7?



Страна: США
Продолжительность: 01:45:52
Перевод: Авторский (одноголосый, закадровый) Ю.Живов, Профессиональный (двухголосый закадровый) НТВ+, Профессиональный (двухголосый закадровый) NORD

Файл
Кодек: Xvid
Качество: HDTVRip
Видео: 720x304, 23.976 fps, 2034 Kbps
Аудио 1: AC3, 6 ch, 448 Kbps...................Авторский (одноголосый, закадровый) Ю.Живов
Аудио 2: AC3, 2 ch, 224 kbps...................Профессиональный (двухголосый закадровый) НТВ+
Аудио 3: AC3, 2 ch, 224 kbps...................Профессиональный (двухголосый закадровый) NORD
General
Complete name : Virtualnost.1995.HDTVRip.3xRus.avi
Format : AVI
Format/Info : Audio Video Interleave
Format profile : OpenDML
File size : 2.18 GiB
Duration : 1h 45mn
Overall bit rate : 2 953 Kbps
Writing application : VirtualDubMod 1.5.10.2 (build 2542/release)
Writing library : VirtualDubMod build 2542/release

Video
ID : 0
Format : MPEG-4 Visual
Format profile : Advanced Simple@L5
Format settings, BVOP : 1
Format settings, QPel : No
Format settings, GMC : No warppoints
Format settings, Matrix : Custom
Codec ID : XVID
Codec ID/Hint : XviD
Duration : 1h 45mn
Bit rate : 2 034 Kbps
Width : 720 pixels
Height : 304 pixels
Display aspect ratio : 2.35:1
Frame rate : 23.976 fps
Color space : YUV
Chroma subsampling : 4:2:0
Bit depth : 8 bits
Scan type : Progressive
Compression mode : Lossy
Bits/(Pixel*Frame) : 0.388
Stream size : 1.50 GiB (69%)
Writing library : XviD 73

Audio #1
ID : 1
Format : AC-3
Format/Info : Audio Coding 3
Mode extension : CM (complete main)
Format settings, Endianness : Big
Codec ID : 2000
Duration : 1h 45mn
Bit rate mode : Constant
Bit rate : 448 Kbps
Channel(s) : 6 channels
Channel positions : Front: L C R, Side: L R, LFE
Sampling rate : 48.0 KHz
Bit depth : 16 bits
Compression mode : Lossy
Stream size : 339 MiB (15%)
Alignment : Split accross interleaves
Interleave, duration : 42 ms (1.00 video frame)
Interleave, preload duration : 500 ms

Audio #2
ID : 2
Format : AC-3
Format/Info : Audio Coding 3
Mode extension : CM (complete main)
Format settings, Endianness : Big
Codec ID : 2000
Duration : 1h 45mn
Bit rate mode : Constant
Bit rate : 224 Kbps
Channel(s) : 2 channels
Channel positions : Front: L R
Sampling rate : 48.0 KHz
Bit depth : 16 bits
Compression mode : Lossy
Stream size : 170 MiB (8%)
Alignment : Split accross interleaves
Interleave, duration : 42 ms (1.00 video frame)
Interleave, preload duration : 500 ms

Audio #3
ID : 3
Format : AC-3
Format/Info : Audio Coding 3
Mode extension : CM (complete main)
Format settings, Endianness : Big
Codec ID : 2000
Duration : 1h 45mn
Bit rate mode : Constant
Bit rate : 224 Kbps
Channel(s) : 2 channels
Channel positions : Front: L R
Sampling rate : 48.0 KHz
Bit depth : 16 bits
Compression mode : Lossy
Stream size : 170 MiB (8%)
Alignment : Split accross interleaves
Interleave, duration : 42 ms (1.00 video frame)
Interleave, preload duration : 500 ms
Релиз от: Leon-masl



Скачать Виртуальность.Виртуозность.Virtuosity.(Бретт.Леонард).[1995.фантастика.боевик.триллер.HDTVRip].[AVO]+[DVO]x2.torrent без регистрации
Золото ЗОЛОТАЯ РАЗДАЧА! СКАЧАННОЕ НЕ ЗАСЧИТЫВАЕТСЯ! Золото
Дата: Зарегистрирован   [ Тип: внутренний ] Как тут cкачать?
MAGNET ссылка
MAGNET ссылка


Скачать .torrent

12 KB

Статус: проверено DHT
Скачан: торрент - 117 раз, раздача полностью - 10 раз
Размер: 2,18 GB
Оценка:  5 (Голосов: 1)
Поблагодарили: 4
Поделиться ссылкой на эту раздачу с друзьями:
В контактеFacebookОдноклассникиTwitterLivejournalМой МирLiveinternet
 

 
Показать сообщения:    


Вы не можете начинать темы
Вы не можете отвечать на сообщения
Вы не можете редактировать свои сообщения
Вы не можете удалять свои сообщения
Вы не можете голосовать в опросах
Вы не можете прикреплять файлы к сообщениям
Вы можете скачивать файлы