Loading...
Error

Скачать Портал юрского периода: Новый мир / Первобытное: Новый мир / Primеvаl: New World (сезон 01) (Аманда Тэппинг, Энди Микита, Мартин Вуд, Майк Рол) [2012, фантастика, драма, HDTVRip-AVC, WEB-DLRip-AVC] [MVO (BaibaKo)] торрент без регистрации

 
Статистика раздачи
Размер:  7,67 GB   |    Скачан:  146 раз
Сидов:  1  [  0 KB/s  ]  
 
Автор Сообщение

МихаНЕзатор

[] 



Название: Портал юрского периода: Новый мир / Первобытное: Новый мир
Оригинальное название: Primеvаl: New World
Год выпуска: 2012
Страна: Канада , Великобритания
Жанр: Фантастика, драма
Продолжительность: 12 х ~00:42:00 мин

Русские субтитры: нет
Режиссёр: Аманда Тэппинг, Энди Микита, Мартин Вуд, Майк Рол
В ролях: Найалл Мэйттер, Сара Каннинг, Кристал Лоу, Миранда Фригон, Джофф Густафссон, Дэнни Рахим, Эндрю Ли Поттс

Описание: На территории Ванкувера неожиданно появляются динозавры и другие доисторические животные. Виной тому - аномалии, созданные порталами в пространстве и времени. Изучением этих аномалий и существ занимаются группа гражданских под предводительством Эвана Кросса.
«Портал юрского периода: Новый мир» научно-фантастический сериал британско-канадского производства. Это спин-офф (ответвление) британского сериала «Портал юрского периода». События разворачиваются после пятого сезона оригинального сериала. Режиссируют сериал Аманда Тэппинг и Энди Микита (Звёздные врата).

Перевод: Профессиональный (многоголосый закадровый) (BaibaKo)
Автор перевода: Янина Галицкая
Озвучка: Светлана Доманова, Татьяна Оболевич, Владимир Курдов и Алексей Кузнецов

Релиз от:

Качество: HDTVRip-AVC, WEB-DLRip-AVC
Формат: MP4
Видео: AVC, 720x400, 1536 Кбит/сек
Аудио Rus: ААС, 2 ch, 192 Кбит/сек
Аудио Eng: ААС, 2 ch, 192 Кбит/сек

01. Новый мир / The New World
02. Sisiutl /
03. Страх полета / Fear of Flying
04. Angry Birds / Злые птички
05. Undone
06. Зачистка в супермаркете / Clean up on Aisle Three
07. Крошки в лесу / Babes in the Woods
08. Truth / Истина
09. Breakthrough / Прорыв
10. The Great Escape / Большой побег
11. The Inquisition
12. The Sound of Thunder (Part 1)
13. The Sound of Thunder (Part 2)
General
Complete name : Primeval.New.World.s01e01.HDTVRip.x264.Rus.Eng.BaibaKo.tv.mp4
Format : MPEG-4
Format profile : Base Media
Codec ID : isom
File size : 583 MiB
Duration : 42mn 22s
Overall bit rate mode : Variable
Overall bit rate : 1 924 Kbps
Encoded date : UTC 2012-11-01 22:38:12
Tagged date : UTC 2012-11-01 22:38:12

Video
ID : 1
Format : AVC
Format/Info : Advanced Video Codec
Format profile : Main@L3.1
Format settings, CABAC : Yes
Format settings, ReFrames : 5 frames
Codec ID : avc1
Codec ID/Info : Advanced Video Coding
Duration : 42mn 22s
Bit rate mode : Variable
Bit rate : 1 536 Kbps
Maximum bit rate : 14.0 Mbps
Width : 720 pixels
Height : 400 pixels
Display aspect ratio : 16:9
Frame rate mode : Constant
Frame rate : 23.976 fps
Color space : YUV
Chroma subsampling : 4:2:0
Bit depth : 8 bits
Scan type : Progressive
Bits/(Pixel*Frame) : 0.222
Stream size : 465 MiB (80%)
Title : primeval new world s01e01 720p hdtv x264-2hd
Writing library : x264 core 125 r2200 999b753
Encoding settings : cabac=1 / ref=5 / deblock=1:-1:-1 / analyse=0x1:0x111 / me=umh / subme=8 / psy=1 / psy_rd=1.00:0.15 / mixed_ref=1 / me_range=16 / chroma_me=1 / trellis=1 / 8x8dct=0 / cqm=0 / deadzone=21,11 / fast_pskip=1 / chroma_qp_offset=-3 / threads=6 / lookahead_threads=1 / sliced_threads=0 / nr=0 / decimate=1 / interlaced=0 / bluray_compat=0 / constrained_intra=0 / bframes=3 / b_pyramid=0 / b_adapt=2 / b_bias=0 / direct=3 / weightb=1 / open_gop=0 / weightp=2 / keyint=240 / keyint_min=24 / scenecut=40 / intra_refresh=0 / rc_lookahead=50 / rc=2pass / mbtree=1 / bitrate=1536 / ratetol=1.0 / qcomp=0.60 / qpmin=0 / qpmax=69 / qpstep=4 / cplxblur=20.0 / qblur=0.5 / vbv_maxrate=14000 / vbv_bufsize=14000 / nal_hrd=vbr / ip_ratio=1.40 / aq=1:1.00
Encoded date : UTC 2012-10-31 15:05:21
Tagged date : UTC 2012-11-01 22:38:42

Audio #1
ID : 2
Format : AAC
Format/Info : Advanced Audio Codec
Format profile : LC
Codec ID : 40
Duration : 42mn 22s
Bit rate mode : Variable
Bit rate : 192 Kbps
Maximum bit rate : 200 Kbps
Channel(s) : 2 channels
Channel positions : Front: L R
Sampling rate : 48.0 KHz
Compression mode : Lossy
Stream size : 58.2 MiB (10%)
Language : Russian
Encoded date : UTC 2012-11-01 22:38:40
Tagged date : UTC 2012-11-01 22:38:42

Audio #2
ID : 3
Format : AAC
Format/Info : Advanced Audio Codec
Format profile : LC
Codec ID : 40
Duration : 42mn 22s
Bit rate mode : Variable
Bit rate : 192 Kbps
Maximum bit rate : 198 Kbps
Channel(s) : 2 channels
Channel positions : Front: L R
Sampling rate : 48.0 KHz
Compression mode : Lossy
Stream size : 58.2 MiB (10%)
Language : English
Encoded date : UTC 2012-11-01 22:38:42
Tagged date : UTC 2012-11-01 22:38:42

General
Complete name : Primeval.New.World.s01e11.WEB-DLRip.x264.Rus.Eng.BaibaKo.tv.mp4
Format : MPEG-4
Format profile : Base Media
Codec ID : isom
File size : 613 MiB
Duration : 44mn 33s
Overall bit rate mode : Variable
Overall bit rate : 1 923 Kbps
Encoded date : UTC 2013-04-13 16:37:59
Tagged date : UTC 2013-04-13 16:37:59

Video
ID : 1
Format : AVC
Format/Info : Advanced Video Codec
Format profile : Baseline@L3.0
Format settings, CABAC : No
Format settings, ReFrames : 3 frames
Codec ID : avc1
Codec ID/Info : Advanced Video Coding
Duration : 44mn 33s
Bit rate mode : Variable
Bit rate : 1 536 Kbps
Maximum bit rate : 10 000 Kbps
Width : 720 pixels
Height : 400 pixels
Display aspect ratio : 16:9
Frame rate mode : Constant
Frame rate : 23.976 fps
Color space : YUV
Chroma subsampling : 4:2:0
Bit depth : 8 bits
Scan type : Progressive
Bits/(Pixel*Frame) : 0.222
Stream size : 489 MiB (80%)
Title : Primeval 11 The Inquisition (1080p HD)
Writing library : x264 core 129 r2245 bc13772
Encoding settings : cabac=0 / ref=3 / deblock=1:0:0 / analyse=0x1:0x111 / me=hex / subme=7 / psy=1 / psy_rd=1.00:0.00 / mixed_ref=1 / me_range=16 / chroma_me=1 / trellis=1 / 8x8dct=0 / cqm=0 / deadzone=21,11 / fast_pskip=1 / chroma_qp_offset=-2 / threads=6 / lookahead_threads=1 / sliced_threads=0 / nr=0 / decimate=1 / interlaced=0 / bluray_compat=0 / constrained_intra=0 / bframes=0 / weightp=0 / keyint=240 / keyint_min=24 / scenecut=40 / intra_refresh=0 / rc_lookahead=40 / rc=2pass / mbtree=1 / bitrate=1536 / ratetol=1.0 / qcomp=0.60 / qpmin=0 / qpmax=69 / qpstep=4 / cplxblur=20.0 / qblur=0.5 / vbv_maxrate=10000 / vbv_bufsize=10000 / nal_hrd=vbr / ip_ratio=1.40 / aq=1:1.00
Encoded date : UTC 2013-04-13 05:50:54
Tagged date : UTC 2013-04-13 16:49:08

Audio #1
ID : 2
Format : AAC
Format/Info : Advanced Audio Codec
Format profile : LC
Codec ID : 40
Duration : 44mn 33s
Bit rate mode : Variable
Bit rate : 192 Kbps
Maximum bit rate : 199 Kbps
Channel(s) : 2 channels
Channel positions : Front: L R
Sampling rate : 48.0 KHz
Compression mode : Lossy
Stream size : 61.2 MiB (10%)
Language : Russian
Encoded date : UTC 2013-04-13 16:26:09
Tagged date : UTC 2013-04-13 16:49:08

Audio #2
ID : 3
Format : AAC
Format/Info : Advanced Audio Codec
Format profile : LC
Codec ID : 40
Duration : 44mn 33s
Bit rate mode : Variable
Bit rate : 192 Kbps
Maximum bit rate : 199 Kbps
Channel(s) : 2 channels
Channel positions : Front: L R
Sampling rate : 48.0 KHz
Compression mode : Lossy
Stream size : 61.2 MiB (10%)
Language : English
Encoded date : UTC 2013-04-13 16:05:40
Tagged date : UTC 2013-04-13 16:49:08



Скачать Портал.юрского.периода.Новый.мир.Первобытное.Новый.мир.Primеvаl.New.World.(сезон.01).(Аманда.Тэппинг.Энди.Микита.Мартин.Вуд.Майк.Рол).[2012.фантастика.драма.HDTVRip-AVC.WEB-DLRip-AVC].[MVO.(BaibaKo)].torrent без регистрации
Золото ЗОЛОТАЯ РАЗДАЧА! СКАЧАННОЕ НЕ ЗАСЧИТЫВАЕТСЯ! Золото
Дата: Зарегистрирован   [ Тип: внутренний ] Как тут cкачать?
MAGNET ссылка
MAGNET ссылка


Скачать .torrent

21 KB

Статус: проверено DHT
Скачан: торрент - 146 раз, раздача полностью - 63 раз
Размер: 7,67 GB
Оценка:  4 (Голосов: 1)
Поблагодарили: 2
Поделиться ссылкой на эту раздачу с друзьями:
В контактеFacebookОдноклассникиTwitterLivejournalМой МирLiveinternet
 

 
Показать сообщения:    


Вы не можете начинать темы
Вы не можете отвечать на сообщения
Вы не можете редактировать свои сообщения
Вы не можете удалять свои сообщения
Вы не можете голосовать в опросах
Вы не можете прикреплять файлы к сообщениям
Вы можете скачивать файлы