Loading...
Error

Скачать Поменяться Местами / Trading Places (Джон Лэндис / John Landis) [1983, комедия, BDRip] [AVO] (А.Гаврилов) + [AVO] (Володарский / ранний) + [DVO] (Премьер Видео Фильм) торрент без регистрации

 
Статистика раздачи
Размер:  1,53 GB   |    Скачан:  126 раз
Сидов:  1  [  0 KB/s  ]  
 
Автор Сообщение

leon030982

[] 

Поменяться Местами / Trading Places


Год выпуска: 1983
Страна: США
Жанр: комедия
Продолжительность: 01:56:22
Перевод 1: Авторский (одноголосый закадровый)[А.Гаврилов]
Перевод 2:Авторский (одноголосый закадровый)[Володарский / ранний]
Перевод 3:Профессиональный (двухголосый закадровый)[Премьер Видео Фильм]

Русские субтитры: нет

Режиссер: Джон Лэндис / John Landis

В ролях: Эдди Мерфи, Дон Амиче, Ралф Беллами, Джэми Ли Кертис, Дэн Эйкройд, Денхолм Эллиотт

Описание: Жизнь респектабельного бизнесмена Луиса Уинтропа Третьего, управляющего богатейшей компании с Уолл-Стрит, круто меняется после того, как его боссы, братья Дьюк, заключают необычное пари. Один из братьев посчитал, что управлять компанией может кто угодно,даже самый отъявленный и необразованный проходимец. Поставив на кон доллар, братья находят для своего эксперимента уличного мошенника Билли Рэя Валентайна, которому и предлагают возглавить компанию вместо Уинтропа. Эксцентрическая парочка Дьюков и не подозревает, что, поменяв местами проходимца и крупного бизнесмена, они рискуют гораздо больше, чем могли бы себе представить...

СЭМПЛ

Качество: BDRip
Формат: AVI
Видео кодек: XviD
Аудио кодек: MP3, AC3
Видео: XviD, 720x400 (16:9), 23.976 fps, 1346 kbps avg
Аудио 1: 48 kHz, MPEG Layer 3, 2 ch, ~128.00 kbps avg (А.Гаврилов)
Аудио 2: AC3, 48.0 khz, 2 ch, 192 kbps (Володарский / ранний VHSRip by natusik2009)
Аудио 3: AC3, 48.0 khz, 2 ch, 192 kbps (Премьер Видео Фильм VHSRip by Fikaloid)
E:\Поменятся местами. 1983. BDRip_2X[AVO + [DVO]].avi
General
Complete name : E:\Поменятся местами. 1983. BDRip_2X[AVO + [DVO]].avi
Format : AVI
Format/Info : Audio Video Interleave
File size : 1.53 GiB
Duration : 1h 56mn
Overall bit rate : 1 877 Kbps
Writing application : VirtualDubMod 1.5.10.3 (build 2550/release)
Writing library : VirtualDubMod build 2550/release
Video #0
ID : 0
Format : MPEG-4 Visual
Format profile : Advanced Simple@L5
Format settings, BVOP : 1
Format settings, QPel : No
Format settings, GMC : No warppoints
Format settings, Matrix : Default (MPEG)
Codec ID : XVID
Codec ID/Hint : XviD
Duration : 1h 56mn
Bit rate : 1 346 Kbps
Width : 720 pixels
Height : 400 pixels
Display aspect ratio : 16:9
Frame rate : 23.976 fps
Color space : YUV
Chroma subsampling : 4:2:0
Bit depth : 8 bits
Scan type : Progressive
Compression mode : Lossy
Bits/(Pixel*Frame) : 0.195
Stream size : 1.09 GiB (72%)
Writing library : XviD 1.2.0.dev47 (UTC 2006-11-01)
Audio #1
ID : 1
Format : MPEG Audio
Format version : Version 1
Format profile : Layer 3
Mode : Joint stereo
Mode extension : MS Stereo
Codec ID : 55
Codec ID/Hint : MP3
Duration : 1h 56mn
Bit rate mode : Constant
Bit rate : 128 Kbps
Channel(s) : 2 channels
Sampling rate : 48.0 KHz
Compression mode : Lossy
Stream size : 107 MiB (7%)
Alignment : Aligned on interleaves
Interleave, duration : 42 ms (1.00 video frame)
Interleave, preload duration : 504 ms
Audio #2
ID : 2
Format : AC-3
Format/Info : Audio Coding 3
Mode extension : CM (complete main)
Format settings, Endianness : Big
Codec ID : 2000
Duration : 1h 56mn
Bit rate mode : Constant
Bit rate : 192 Kbps
Channel(s) : 2 channels
Channel positions : Front: L R
Sampling rate : 48.0 KHz
Bit depth : 16 bits
Compression mode : Lossy
Stream size : 160 MiB (10%)
Alignment : Split accross interleaves
Interleave, duration : 42 ms (1.00 video frame)
Interleave, preload duration : 500 ms
Audio #3
ID : 3
Format : AC-3
Format/Info : Audio Coding 3
Mode extension : CM (complete main)
Format settings, Endianness : Big
Codec ID : 2000
Duration : 1h 56mn
Bit rate mode : Constant
Bit rate : 192 Kbps
Channel(s) : 2 channels
Channel positions : Front: L R
Sampling rate : 48.0 KHz
Bit depth : 16 bits
Compression mode : Lossy
Stream size : 160 MiB (10%)
Alignment : Split accross interleaves
Interleave, duration : 42 ms (1.00 video frame)
Interleave, preload duration : 500 ms




Скачать Поменяться.Местами.Trading.Places.(Джон.Лэндис.John.Landis).[1983.комедия.BDRip].[AVO].(А.Гаврилов).+.[AVO].(Володарский.ранний).+.[DVO].(Премьер.Видео.Фильм).torrent без регистрации
Золото ЗОЛОТАЯ РАЗДАЧА! СКАЧАННОЕ НЕ ЗАСЧИТЫВАЕТСЯ! Золото
Дата: Зарегистрирован   [ Тип: внутренний ] Как тут cкачать?
MAGNET ссылка
MAGNET ссылка


Скачать .torrent

16 KB

Статус: проверено DHT
Скачан: торрент - 126 раз, раздача полностью - 1 раз
Размер: 1,53 GB
Оценка:  5 (Голосов: 2)
Поблагодарили: 6
Поделиться ссылкой на эту раздачу с друзьями:
В контактеFacebookОдноклассникиTwitterLivejournalМой МирLiveinternet
 

 
Показать сообщения:    


Вы не можете начинать темы
Вы не можете отвечать на сообщения
Вы не можете редактировать свои сообщения
Вы не можете удалять свои сообщения
Вы не можете голосовать в опросах
Вы не можете прикреплять файлы к сообщениям
Вы можете скачивать файлы