Loading...
Error

Скачать Соммерсби / Sommersby (Джон Эмиел) [1993, драма, мелодрама, детектив, BDRip] [MVO]+[DVO]+[AVO]+[Sub] торрент без регистрации

 
Статистика раздачи
Размер:  1,88 GB   |    Скачан:  120 раз
Сидов:  1  [  0 KB/s  ]  
 
Автор Сообщение

Marsianka

[] 

Название: Соммерсби
Оригинальное название: Sommersby
Год выпуска: 1993
Жанр: драма, мелодрама, детектив
Выпущено: США, Франция, Alcor Films, Canal+ [fr], Regency Enterprises
Режиссер: Джон Эмиел
В ролях: Ричард Гир, Джоди Фостер, Билл Пуллман, Джеймс Эрл Джонс, Лэнни Флаэрти, Уильям Уиндом, Уенделл Веллман, Бретт Келли, Клариса Тейлор, Фрэнки Фэйзон, Ричард Хэмилтон, Карен Киршенбауер, Дин Витуорт, Стэн Келли, Стефани Уивер, Джош МакЛерран, Марк Уильямс, Мьюз Уотсон, Пол Остин, Фрэнк Хойт Тейлор, Билли Л. 'Бутч' Фрэнк, Дэйл Стюарт, Джэйк Кресс, Даг Слоун, Рэй МакКиннон, Мори Чайкин, Бэрри МакЛерран, Ричард Лайнбэк, Майкл Голд, Джо Башам, Патрик Морс, Джо Нил, Гарри Т. Дэниэл

О фильме: После окончания Гражданской войны Джек Соммерсби, которого все считали погибшим, возвращается в родной городок. Все давно перестали ждать его и потому чрезвычайно рады появлению ветерана в родных краях. И лишь жена, которая всегда верила, что её муж вернётся, относится к Джеку странно будто она ему не рада. Находятся и другие противники Соммерсби. А Джек постепенно налаживает хозяйство, помогает жителям городка решить проблему нищенского существования, восстанавливает отношения с женой. Однако, чем больше Джек старается жить обычной жизнью, тем больше у его жены появляется подозрений: действительно ли этот человек её муж?



Качество: BDRip
Размер: 1.87 ГБ
Продолжительность: 01:53:25

Видео: XviD, 1581 Kбит/с, 720x304
Аудио 1: русский, 48 kHz, AC3, 2 ch, 192 kbps avg, [Профессиональный многоголосый, R5]
Аудио 2: русский, 48 kHz, AC3, 2 ch, 192 kbps avg, HTB [Профессиональный двухголосый]
Аудио 3: русский, 48 kHz, AC3, 2 ch, 192 kbps avg, Алексей Михалёв [Авторский]

Внешние файлы
Аудио: английский, 48 kHz, AC3, 2 ch, 192 kbps avg, [Оригинал]
Субтитры: русские
Субтитры: английские
Общее
Полное имя : E:VideoSommersbi.1993.XviD.BDRipSommersbi.1993.eng.srt
Размер файла : 95,9 Кбайт

Общее
Полное имя : E:VideoSommersbi.1993.XviD.BDRipSommersbi.1993.Original.eng.ac3
Формат : AC-3
Формат/Информация : Audio Coding 3
Размер файла : 156 Мбайт
Продолжительность : 1 ч. 53 м.
Режим общего битрейта : Постоянный
Общий поток : 192 Кбит/сек

Аудио
Формат : AC-3
Формат/Информация : Audio Coding 3
Расширение режима : CM (complete main)
Параметр Endianness формата : Big
Продолжительность : 1 ч. 53 м.
Вид битрейта : Постоянный
Битрейт : 192 Кбит/сек
Каналы : 2 канала
Расположение каналов : Front: L R
Частота : 48,0 КГц
Битовая глубина : 16 бит
Метод сжатия : С потерями
Размер потока : 156 Мбайт (100%)

Общее
Полное имя : E:VideoSommersbi.1993.XviD.BDRipSommersbi.1993.rus.srt
Размер файла : 90,0 Кбайт

Общее
Полное имя : E:VideoSommersbi.1993.XviD.BDRipSommersbi.1993.XviD.BDRip.avi
Формат : AVI
Формат/Информация : Audio Video Interleave
Размер файла : 1,72 Гбайт
Продолжительность : 1 ч. 53 м.
Общий поток : 2176 Кбит/сек
Программа кодирования : VirtualDubMod 1.5.10.2 (build 2540/release)
Библиотека кодирования : VirtualDubMod build 2540/release

Видео
Идентификатор : 0
Формат : MPEG-4 Visual
Профиль формата : Advanced Simple@L5
Параметр BVOP формата : 1
Параметр QPel формата : Нет
Параметр GMC формата : Без точки перехода
Параметр матрицы формата : Default (H.263)
Режим смешивания : Сжатый битовый поток
Идентификатор кодека : XVID
Идентификатор кодека/Подсказка : XviD
Продолжительность : 1 ч. 53 м.
Битрейт : 1581 Кбит/сек
Ширина : 720 пикселей
Высота : 304 пикселя
Соотношение сторон : 2,35:1
Частота кадров : 23,976 кадра/сек
Цветовое пространство : YUV
Субдискретизация насыщенности : 4:2:0
Битовая глубина : 8 бит
Тип развёртки : Прогрессивная
Метод сжатия : С потерями
Бит/(Пиксели*Кадры) : 0.301
Размер потока : 1,25 Гбайт (73%)
Библиотека кодирования : XviD 1.2.1 (UTC 2008-12-04)

Аудио #1
Идентификатор : 1
Формат : AC-3
Формат/Информация : Audio Coding 3
Расширение режима : CM (complete main)
Параметр Endianness формата : Big
Идентификатор кодека : 2000
Продолжительность : 1 ч. 53 м.
Вид битрейта : Постоянный
Битрейт : 192 Кбит/сек
Каналы : 2 канала
Расположение каналов : Front: L R
Частота : 48,0 КГц
Битовая глубина : 16 бит
Метод сжатия : С потерями
Размер потока : 156 Мбайт (9%)
Выравнивание : Разделение по промежуткам
Продолжительность промежутка : 42 мс. (1,00 видеокадр)
Время предзагрузки промежутка : 500 мс.

Аудио #2
Идентификатор : 2
Формат : AC-3
Формат/Информация : Audio Coding 3
Расширение режима : CM (complete main)
Параметр Endianness формата : Big
Идентификатор кодека : 2000
Продолжительность : 1 ч. 53 м.
Вид битрейта : Постоянный
Битрейт : 192 Кбит/сек
Каналы : 2 канала
Расположение каналов : Front: L R
Частота : 48,0 КГц
Битовая глубина : 16 бит
Метод сжатия : С потерями
Размер потока : 156 Мбайт (9%)
Выравнивание : Разделение по промежуткам
Продолжительность промежутка : 42 мс. (1,00 видеокадр)
Время предзагрузки промежутка : 500 мс.

Аудио #3
Идентификатор : 3
Формат : AC-3
Формат/Информация : Audio Coding 3
Расширение режима : CM (complete main)
Параметр Endianness формата : Big
Идентификатор кодека : 2000
Продолжительность : 1 ч. 53 м.
Вид битрейта : Постоянный
Битрейт : 192 Кбит/сек
Каналы : 2 канала
Расположение каналов : Front: L R
Частота : 48,0 КГц
Битовая глубина : 16 бит
Метод сжатия : С потерями
Размер потока : 156 Мбайт (9%)
Выравнивание : Разделение по промежуткам
Продолжительность промежутка : 42 мс. (1,00 видеокадр)
Время предзагрузки промежутка : 500 мс.



Скачать Соммерсби.Sommersby.(Джон.Эмиел).[1993.драма.мелодрама.детектив.BDRip].[MVO]+[DVO]+[AVO]+[Sub].torrent без регистрации
Золото ЗОЛОТАЯ РАЗДАЧА! СКАЧАННОЕ НЕ ЗАСЧИТЫВАЕТСЯ! Золото
Дата: Зарегистрирован   [ Тип: внутренний ] Как тут cкачать?
MAGNET ссылка
MAGNET ссылка


Скачать .torrent

19 KB

Статус: проверено DHT
Скачан: торрент - 120 раз, раздача полностью - 10 раз
Размер: 1,88 GB
Оценка:  - (Голосов: 0)
Поблагодарили: 2
Поделиться ссылкой на эту раздачу с друзьями:
В контактеFacebookОдноклассникиTwitterLivejournalМой МирLiveinternet
 

 
Показать сообщения:    


Вы не можете начинать темы
Вы не можете отвечать на сообщения
Вы не можете редактировать свои сообщения
Вы не можете удалять свои сообщения
Вы не можете голосовать в опросах
Вы не можете прикреплять файлы к сообщениям
Вы можете скачивать файлы