Loading...
Error

Скачать Муж на час (Ольга Перуновская) [2007, комедия, мелодрама, DVB] торрент без регистрации

 
Статистика раздачи
Размер:  3,08 GB   |    Скачан:  132 раза

Полного источника не было: 24 минуты

 
Автор Сообщение

МихаНЕзатор

[] 

Жанр: комедия, мелодрама
Год выпуска: 2007
Продолжительность: 01:28:38

Режиссёр: Ольга Перуновская

В ролях: Евгения Дмитриева, Андрей Казаков, Анастасия Бусыгина, Мария Звонарёва, Кирилл Продолятченко, Алина Цибизова, Олег Леушин

Описание: Андрей, работающий в фирме "Муж на час", приезжает по вызову в квартиру одинокой женщины с ребенком. Лиза, хозяйка квартиры, случайно обливает его, Андрей раздевается до трусов, а вернувшийся домой Антон, сын Лизы, решает, что
Андрей - его папа. Теперь он мечтает только об одном - во что бы то ни стало поженить маму и Андрея...



Релиз группы:

Качество видео: DVB
Формат видео: MPEG-PS

Видео: MPEG2 Video, 720x576 (4:3), 25 fps, 4636 Kbps (0.447 bit/pixel)
Аудио: MPEG Audio, 48000 Hz, 2 channels, 256 Кбит/сек

Общее
Полное имя : W:Video1Otcovskij.instinkt.(STB_2012_DVB)Muzh.na.chas.MPEG.2007.by.simka.mpg
Формат : MPEG-PS
Размер файла : 3,08 Гбайт
Продолжительность : 1 ч. 28 м.
Общий поток : 4970 Кбит/сек
Библиотека кодирования : (c) 1998-2010 Womble Multimedia, Inc. / MPEG Video Wizard DVD 5.0.0.114 (01/2010) / Nov 13 2010

Видео
Идентификатор : 224 (0xE0)
Формат : MPEG Video
Версия формата : Version 2
Профиль формата : Main@Main
Параметр BVOP формата : Да
Параметр матрицы формата : Выборочная
Параметры GOP формата : M=1, N=26
Продолжительность : 1 ч. 28 м.
Вид битрейта : Переменный
Битрейт : 4636 Кбит/сек
Ширина : 720 пикс.
Высота : 576 пикс.
Соотношение сторон : 4:3
Частота кадров : 25,000 кадр/сек
Стандарт вещания : PAL
Цветовое пространство : YUV
Подвыборка цветности : 4:2:0
Битовая глубина : 8 бит
Тип развёртки : Чересстрочная
Порядок развёртки : Верхнее поле первое
Метод сжатия : С потерями
Бит/(Пиксели*Кадры) : 0.447
Размер потока : 2,86 Гбайт (93%)
Библиотека кодирования : (c) 1998-2010 Womble Multimedia, Inc. / MPEG Video Wizard DVD 5.0.0.114 (01/2010) / Nov 13 2010

Аудио
Идентификатор : 192 (0xC0)
Формат : MPEG Audio
Версия формата : Version 1
Профиль формата : Layer 2
Продолжительность : 1 ч. 28 м.
Вид битрейта : Постоянный
Битрейт : 256 Кбит/сек
Каналы : 2 канала
Частота : 48,0 КГц
Метод сжатия : С потерями
Размер потока : 162 Мбайт (5%)



Скачать Муж.на.час.(Ольга.Перуновская).[2007.комедия.мелодрама.DVB].torrent без регистрации
Золото ЗОЛОТАЯ РАЗДАЧА! СКАЧАННОЕ НЕ ЗАСЧИТЫВАЕТСЯ! Золото
Дата: Зарегистрирован   [ Тип: внутренний ] Как тут cкачать?
MAGNET ссылка
MAGNET ссылка


Скачать .torrent

31 KB

Статус: проверено DHT
Скачан: торрент - 132 раз, раздача полностью - 124 раз
Размер: 3,08 GB
Оценка:  - (Голосов: 0)
Поблагодарили: 1
Поделиться ссылкой на эту раздачу с друзьями:
В контактеFacebookОдноклассникиTwitterLivejournalМой МирLiveinternet
 

 
Показать сообщения:    


Вы не можете начинать темы
Вы не можете отвечать на сообщения
Вы не можете редактировать свои сообщения
Вы не можете удалять свои сообщения
Вы не можете голосовать в опросах
Вы не можете прикреплять файлы к сообщениям
Вы можете скачивать файлы