Loading...
Error

Скачать Снег на голову (Александр Даруга) [2009, мелодрама, DVB] торрент без регистрации

 
Статистика раздачи
Размер:  3,57 GB   |    Скачан:  122 раза

Полного источника не было: 28 минут

 
Автор Сообщение

МихаНЕзатор

[] 

Жанр: мелодрама
Год выпуска: 2009
Продолжительность: 01:27:58

Режиссёр: Александр Даруга

В ролях: Елена Лагута, Артём Михалков, Екатерина Стулова, Александр Лойе, Максим Лагашкин, Елена Калинина, Замира Колхиева, Михаил Левченко, Александр Робак, Ольга Машная, Виктор Григорюк, Ольга Бакулина

Описание: Ника едет перед Новым годом на свой предсвадебный девичник в загородный пансионат. По дороге её авто подрезает свадебный розовый «Бьюик» с симпатичным молодым человеком за рулём. Потом эта парочка ещё не раз пересекается, и каждый раз их встреча заканчивается ссорой. Однако героиня понимает, что не может жить без новоявленного знакомого... Конец истории по-новогоднему счастливый.



Релиз группы::

Качество: DVB
Формат: MPEG

Видео: MPEG2 Video 720x576 (4:3) 25 fps 5525 Kbps, 0.533 bit/pixel
Аудио: MPEG Audio 48000 Hz 1 channels 192 Кбит/сек

Общее
Полное имя : W:Video1Otcovskij.instinkt.(STB_2012_DVB)Снег на голову..2012.by.simka.mpg
Формат : MPEG-PS
Размер файла : 3,57 Гбайт
Продолжительность : 1 ч. 27 м.
Общий поток : 5805 Кбит/сек
Библиотека кодирования : (c) 1998-2010 Womble Multimedia, Inc. / MPEG Video Wizard DVD 5.0.0.114 (01/2010) / Nov 13 2010

Видео
Идентификатор : 224 (0xE0)
Формат : MPEG Video
Версия формата : Version 2
Профиль формата : Main@Main
Параметр BVOP формата : Да
Параметр матрицы формата : Выборочная
Параметры GOP формата : M=1, N=25
Продолжительность : 1 ч. 27 м.
Вид битрейта : Переменный
Битрейт : 5525 Кбит/сек
Ширина : 720 пикс.
Высота : 576 пикс.
Соотношение сторон : 4:3
Частота кадров : 25,000 кадр/сек
Стандарт вещания : PAL
Цветовое пространство : YUV
Подвыборка цветности : 4:2:0
Битовая глубина : 8 бит
Тип развёртки : Чересстрочная
Порядок развёртки : Верхнее поле первое
Метод сжатия : С потерями
Бит/(Пиксели*Кадры) : 0.533
Размер потока : 3,38 Гбайт (95%)
Библиотека кодирования : (c) 1998-2010 Womble Multimedia, Inc. / MPEG Video Wizard DVD 5.0.0.114 (01/2010) / Nov 13 2010

Аудио
Идентификатор : 192 (0xC0)
Формат : MPEG Audio
Версия формата : Version 1
Профиль формата : Layer 2
Продолжительность : 1 ч. 27 м.
Вид битрейта : Постоянный
Битрейт : 192 Кбит/сек
Каналы : 1 канал
Частота : 48,0 КГц
Метод сжатия : С потерями
Размер потока : 121 Мбайт (3%)

Меню



Скачать Снег.на.голову.(Александр.Даруга).[2009.мелодрама.DVB].torrent без регистрации
Золото ЗОЛОТАЯ РАЗДАЧА! СКАЧАННОЕ НЕ ЗАСЧИТЫВАЕТСЯ! Золото
Дата: Зарегистрирован   [ Тип: внутренний ] Как тут cкачать?
MAGNET ссылка
MAGNET ссылка


Скачать .torrent

36 KB

Статус: проверено DHT
Скачан: торрент - 122 раз, раздача полностью - 18 раз
Размер: 3,57 GB
Оценка:  - (Голосов: 0)
Поблагодарили: 2
Поделиться ссылкой на эту раздачу с друзьями:
В контактеFacebookОдноклассникиTwitterLivejournalМой МирLiveinternet
 

 
Показать сообщения:    


Вы не можете начинать темы
Вы не можете отвечать на сообщения
Вы не можете редактировать свои сообщения
Вы не можете удалять свои сообщения
Вы не можете голосовать в опросах
Вы не можете прикреплять файлы к сообщениям
Вы можете скачивать файлы