Loading...
Error

Скачать The Wedding Singer / Певец на свадьбе (Фрэнк Корачи / Frank Coraci) [1998, Комедия, Мелодрама, Музыка, BDRip] [MVO] + [AVO] торрент без регистрации

 
Статистика раздачи
Размер:  2,18 GB   |    Скачан:  107 раз

Полного источника не было: 20 минут

 
Автор Сообщение

leon030982

[] 


The Wedding Singer / Певец на свадьбе





Год выпуска: 1998
Выпущено: США
Жанр: Комедия, Мелодрама, Музыка
Продолжительность: 01:40:10
Перевод 1: Профессиональный (многоголосый)
Перевод 2: Авторский (одноголосный, закадровый) [А.Гаврилов]
Субтитры: нет
Режиссер: Фрэнк Корачи / Frank Coraci
В ролях: Адам Сэндлер, Дрю Бэрримор, Кристин Тейлор, Аллен Коверт, Мэттью Глэйв,
Стив Бушеми, Эллен Альбертини Дау, Анджела Фезерстоун, Алексис Аркетт, Кристина Пиклз
Описание: Во время свадебного торжества солист оркестра Робби Харт знакомится с начинающей официанткой Джулией. Выясняется, что каждый из них готовится к собственной свадьбе. Однако, волею случая женитьба Робби расстраивается, а Джулия просит его помощь в организации своей свадьбы. И еще она просит Робби научить ее правильно целоваться...

Релиз группы:

Автор: HELLRAiSER

В фильме присутствует сцена без голосового перевода (~4 минуты), переведена субтитрами.
Качество: BDRip
Формат: AVI
Видео кодек: XviD
Аудио кодек: AC3
Видео: 720x384 (1.88:1), 23.976 fps, XviD build 50 ~1833 kbps avg, 0.28 bit/pixel
Аудио 1: 48 kHz, AC3 Dolby Digital, 3/2 (L,C,R,l,r) + LFE ch, ~448.00 kbps avg [MVO]
Аудио 2: 48 kHz, AC3 Dolby Digital, 3/2 (L,C,R,l,r) + LFE ch, ~448.00 kbps avg [AVO]
Аудио 3: 48 kHz, AC3 Dolby Digital, 3/2 (L,C,R,l,r) + LFE ch, ~384.00 kbps avg [ENG]
E:\INTERNET\Pevec.Na.Svad'be.1998.TRIPLE.BDRip.XviD.AC3.-HELLYWOOD\Pevec.Na.Svad'be.1998.TRIPLE.BDRip.XviD.AC3.-HELLYWOOD.avi
General
Complete name : E:\INTERNET\Pevec.Na.Svad'be.1998.TRIPLE.BDRip.XviD.AC3.-HELLYWOOD\Pevec.Na.Svad'be.1998.TRIPLE.BDRip.XviD.AC3.-HELLYWOOD.avi
Format : AVI
Format/Info : Audio Video Interleave
Format profile : OpenDML
File size : 2.18 GiB
Duration : 1h 40mn
Overall bit rate : 3 120 Kbps
Movie name : Ïåâåö íà ñâàäüáå / The Wedding Singer (1998) BDRip
Director : HELLRAiSER
Writing application : VirtualDubMod 1.5.10.2 (build 2542/release)
Copyright : http://forum.hellywood.ru
Comment : 15.05.2009
Video #0
ID : 0
Format : MPEG-4 Visual
Format profile : Advanced Simple@L5
Format settings, BVOP : 1
Format settings, QPel : No
Format settings, GMC : No warppoints
Format settings, Matrix : Default (MPEG)
Codec ID : XVID
Codec ID/Hint : XviD
Duration : 1h 40mn
Bit rate : 1 816 Kbps
Width : 720 pixels
Height : 384 pixels
Display aspect ratio : 16:9
Original display aspect ratio : 1.85:1
Frame rate : 23.976 fps
Color space : YUV
Chroma subsampling : 4:2:0
Bit depth : 8 bits
Scan type : Progressive
Compression mode : Lossy
Bits/(Pixel*Frame) : 0.274
Stream size : 1.27 GiB (58%)
Writing library : XviD 1.2.1 (UTC 2008-12-04)
Audio #1
ID : 1
Format : AC-3
Format/Info : Audio Coding 3
Mode extension : CM (complete main)
Format settings, Endianness : Big
Codec ID : 2000
Duration : 1h 40mn
Bit rate mode : Constant
Bit rate : 448 Kbps
Channel(s) : 6 channels
Channel positions : Front: L C R, Side: L R, LFE
Sampling rate : 48.0 KHz
Bit depth : 16 bits
Compression mode : Lossy
Stream size : 321 MiB (14%)
Alignment : Split accross interleaves
Interleave, duration : 42 ms (1.00 video frame)
Interleave, preload duration : 500 ms
Audio #2
ID : 2
Format : AC-3
Format/Info : Audio Coding 3
Mode extension : CM (complete main)
Format settings, Endianness : Big
Codec ID : 2000
Duration : 1h 40mn
Bit rate mode : Constant
Bit rate : 448 Kbps
Channel(s) : 6 channels
Channel positions : Front: L C R, Side: L R, LFE
Sampling rate : 48.0 KHz
Bit depth : 16 bits
Compression mode : Lossy
Stream size : 321 MiB (14%)
Alignment : Split accross interleaves
Interleave, duration : 42 ms (1.00 video frame)
Interleave, preload duration : 500 ms
Audio #3
ID : 3
Format : AC-3
Format/Info : Audio Coding 3
Mode extension : CM (complete main)
Format settings, Endianness : Big
Codec ID : 2000
Duration : 1h 40mn
Bit rate mode : Constant
Bit rate : 384 Kbps
Channel(s) : 6 channels
Channel positions : Front: L C R, Side: L R, LFE
Sampling rate : 48.0 KHz
Bit depth : 16 bits
Compression mode : Lossy
Stream size : 275 MiB (12%)
Alignment : Split accross interleaves
Interleave, duration : 42 ms (1.00 video frame)
Interleave, preload duration : 500 ms





Скачать The.Wedding.Singer.Певец.на.свадьбе.(Фрэнк.Корачи.Frank.Coraci).[1998.Комедия.Мелодрама.Музыка.BDRip].[MVO].+.[AVO].torrent без регистрации
Золото ЗОЛОТАЯ РАЗДАЧА! СКАЧАННОЕ НЕ ЗАСЧИТЫВАЕТСЯ! Золото
Дата: Зарегистрирован   [ Тип: внутренний ] Как тут cкачать?
MAGNET ссылка
MAGNET ссылка


Скачать .torrent

12 KB

Статус: проверено DHT
Скачан: торрент - 107 раз, раздача полностью - 3 раз
Размер: 2,18 GB
Оценка:  5 (Голосов: 1)
Поблагодарили: 1
Поделиться ссылкой на эту раздачу с друзьями:
В контактеFacebookОдноклассникиTwitterLivejournalМой МирLiveinternet
 

 
Показать сообщения:    


Вы не можете начинать темы
Вы не можете отвечать на сообщения
Вы не можете редактировать свои сообщения
Вы не можете удалять свои сообщения
Вы не можете голосовать в опросах
Вы не можете прикреплять файлы к сообщениям
Вы можете скачивать файлы