Loading...
Error

Скачать Жизнь дерьмо / Life Stinks (Мэл Брукс) [1991 г., мелодрама, комедия, DVDRip-AVC] [AVO] (Михалев) торрент без регистрации

 
Статистика раздачи
Размер:  1,45 GB   |    Скачан:  134 раза
Сидов:  1  [  0 KB/s  ]  
 
Автор Сообщение

durik

[] 

Жизнь дерьмо / Life Stinks


Название: Жизнь дерьмо
Оригинальное название: Life Stinks
Год выхода: 1991
Жанр: мелодрама, комедия
Режиссер: Мэл Брукс
В ролях: Мэл Брукс, Лесли Энн Уоррен, Джеффри Тэмбор, Стюарт Пэнкин, Ховард Моррис, Руди Де Лука, Тедди Уилсон, Майкл Инсайн, Мэттью Фэйзон, Билли Барти

О фильме:
Бедные мечтают о богатстве, а миллионеры, как явствует из многочисленных американских фильмов, не прочь окунуться в нищету, грязь и вонючее дерьмо. Мэл Брукс играет одного из таких богатеев, который заключает пари, что сможет целый месяц просуществовать среди отбросов общества, не имея в начале этого социального эксперимента ни цента в кармане.
Разумеется, герой фильма не только открывает для себя новые «горизонты» жизни, сталкиваясь с бесправием и беззаконием, но и познает красоту человеческого духа, беспредельную доброту и самоотверженность убогих и нищих. Здесь ему даже удается найти свою любовь!


Страна: США
Студия: Brooksfilms, MGM-Pathé Communications Co
Продолжительность: 01:32:03
Перевод: Авторский одноголосый (Михалев)

Кодек: AVC | MKV
Качество: DVDRip-AVC
Видео: 720x400, 2069 kbps, 23,976 fps, 0,300 Bits/(Pixel*Frame)
Звук: AC3, 48 kHz, 192 kbps, 2 ch
Субтитры: Отсутствуют

Семпл

Релиз от:

Автор рипа: Bathory

General
Unique ID : 221136794404614756025155066990862763353 (0xA65D65BCFCB62D3F91626534DA078559)
Complete name : H:zhizn.dermo.1991.dvdrip_avc.mkv
Format : Matroska
Format version : Version 2
File size : 1.45 GiB
Duration : 1h 32mn
Overall bit rate : 2 262 Kbps
Encoded date : UTC 2013-05-25 02:23:57
Writing application : mkvmerge v6.1.0 ('Old Devil') built on Mar 4 2013 09:10:42
Writing library : libebml v1.3.0 + libmatroska v1.4.0

Video
ID : 1
Format : AVC
Format/Info : Advanced Video Codec
Format profile : Main@L4.1
Format settings, CABAC : Yes
Format settings, ReFrames : 10 frames
Codec ID : V_MPEG4/ISO/AVC
Duration : 1h 32mn
Bit rate : 2 069 Kbps
Width : 720 pixels
Height : 400 pixels
Display aspect ratio : 16:9
Frame rate mode : Constant
Frame rate : 23.976 fps
Color space : YUV
Chroma subsampling : 4:2:0
Bit depth : 8 bits
Scan type : Progressive
Bits/(Pixel*Frame) : 0.300
Stream size : 1.30 GiB (90%)
Writing library : x264 core 130 r2273 b3065e6
Encoding settings : cabac=1 / ref=10 / deblock=1:-1:-1 / analyse=0x1:0x131 / me=umh / subme=11 / psy=1 / psy_rd=1.00:0.16 / mixed_ref=1 / me_range=16 / chroma_me=1 / trellis=2 / 8x8dct=0 / cqm=0 / deadzone=21,11 / fast_pskip=0 / chroma_qp_offset=-3 / threads=6 / lookahead_threads=1 / sliced_threads=0 / nr=0 / decimate=1 / interlaced=0 / bluray_compat=0 / constrained_intra=0 / bframes=8 / b_pyramid=2 / b_adapt=2 / b_bias=0 / direct=3 / weightb=1 / open_gop=0 / weightp=2 / keyint=250 / keyint_min=23 / scenecut=40 / intra_refresh=0 / rc_lookahead=70 / rc=2pass / mbtree=1 / bitrate=2069 / ratetol=1.0 / qcomp=0.70 / qpmin=0 / qpmax=69 / qpstep=4 / cplxblur=20.0 / qblur=0.5 / vbv_maxrate=50000 / vbv_bufsize=62500 / nal_hrd=none / ip_ratio=1.40 / aq=1:1.30
Default : Yes
Forced : No

Audio
ID : 2
Format : AC-3
Format/Info : Audio Coding 3
Mode extension : CM (complete main)
Format settings, Endianness : Big
Codec ID : A_AC3
Duration : 1h 32mn
Bit rate mode : Constant
Bit rate : 192 Kbps
Channel(s) : 2 channels
Channel positions : Front: L R
Sampling rate : 48.0 KHz
Bit depth : 16 bits
Compression mode : Lossy
Stream size : 126 MiB (8%)
Default : Yes
Forced : No



Скачать Жизнь.дерьмо.Life.Stinks.(Мэл.Брукс).[1991.г.мелодрама.комедия.DVDRip-AVC].[AVO].(Михалев).torrent без регистрации
Золото ЗОЛОТАЯ РАЗДАЧА! СКАЧАННОЕ НЕ ЗАСЧИТЫВАЕТСЯ! Золото
Дата: Зарегистрирован   [ Тип: внутренний ] Как тут cкачать?
MAGNET ссылка
MAGNET ссылка


Скачать .torrent

15 KB

Статус: проверено DHT
Скачан: торрент - 134 раз, раздача полностью - 19 раз
Размер: 1,45 GB
Оценка:  - (Голосов: 0)
Поблагодарили: 3
Поделиться ссылкой на эту раздачу с друзьями:
В контактеFacebookОдноклассникиTwitterLivejournalМой МирLiveinternet
 

 
Показать сообщения:    


Вы не можете начинать темы
Вы не можете отвечать на сообщения
Вы не можете редактировать свои сообщения
Вы не можете удалять свои сообщения
Вы не можете голосовать в опросах
Вы не можете прикреплять файлы к сообщениям
Вы можете скачивать файлы