Loading...
Error

Скачать Жизнь дерьмо / Life Stinks (Мел Брукс / Mel Brooks) [1991 г., Комедия, DVDRip] [MVO] + [AVO] торрент без регистрации

 
Статистика раздачи
Размер:  1,37 GB   |    Скачан:  122 раза

Полного источника не было: 1 год 8 месяцев

 
Автор Сообщение

leon030982

[] 

Жизнь дерьмо / Life Stinks


Год выпуска: 1991
Страна: США
Жанр: Комедия
Продолжительность: 01:32:03
Перевод 1: Профессиональный (многоголосный, закадровый)
Перевод 2: Авторский (одноголосный, закадровый) [А.Михалёв]
Русские субтитры: нет

Режиссер: Мел Брукс /Mel Brooks

В ролях: Мел Брукс, Лесли Энн Уоррен, Джеффри Тэмбор, Стюарт Пэнкин, Хауард Моррис, Руди Де Лука

Описание: Мультимиллионер Годдард Болт (Брукс) заключает пари со своим соперником. Если он выиграет пари, то получит право на застройку бедного квартала Лос-Анджелеса. По условию пари он должен прожить 30 дней без денег и документов на улицах этого квартала. Принцу в стране нищих приходится очень туго, да вдобавок продажные юристы подставят ему роковую подножку. Все, конечно, закончится благополучно в этой нетипичной для Брукса социальной черной комедии. (Иванов М.)


Релиз

Качество: DVDRip
Формат: AVI
Видео кодек: DivX
Аудио кодек: AC3, MP3
Видео: 720x384 (1.88:1), 23.976 fps, DivX Codec 6.4 ~1600 kbps avg, 0.24 bit/pixel
Аудио #1: 48 kHz, AC3 Dolby Digital, 2/0 (L,R) ch, ~192.00 kbps avg [Многоголосный закадровый]
Аудио #2: 48 kHz, AC3 Dolby Digital, 2/0 (L,R) ch, ~192.00 kbps avg [А.Михалёв]
Аудио #3: 48 kHz, MPEG Layer 3, 2 ch, ~128.00 kbps avi [английская дорожка]
E:\INTERNET\Zhizn.dermo.(RUS.ENG).DVDRip.by.gera.avi
General
Complete name : E:\INTERNET\Zhizn.dermo.(RUS.ENG).DVDRip.by.gera.avi
Format : AVI
Format/Info : Audio Video Interleave
File size : 1.37 GiB
Duration : 1h 32mn
Overall bit rate : 2 127 Kbps
Movie name : Life Stinks
Director : Mel Brooks
Genre : Comedy
Writing application : VirtualDubMod 1.5.10.2 (build 2540/release)
Original source form/Name : Movie
Copyright : 1991, USA
Comment : DVDRip by gera
Video #0
ID : 0
Format : MPEG-4 Visual
Format settings, BVOP : No
Format settings, QPel : No
Format settings, GMC : No warppoints
Format settings, Matrix : Default (H.263)
Codec ID : DX50
Codec ID/Hint : DivX 5
Duration : 1h 32mn
Bit rate : 1 601 Kbps
Width : 720 pixels
Height : 384 pixels
Display aspect ratio : 1.85:1
Frame rate : 23.976 fps
Color space : YUV
Chroma subsampling : 4:2:0
Bit depth : 8 bits
Scan type : Progressive
Compression mode : Lossy
Bits/(Pixel*Frame) : 0.241
Stream size : 1.03 GiB (75%)
Writing library : DivX 6.4.0 (UTC 2006-10-03)
Audio #1
ID : 1
Format : AC-3
Format/Info : Audio Coding 3
Mode extension : CM (complete main)
Format settings, Endianness : Big
Codec ID : 2000
Duration : 1h 32mn
Bit rate mode : Constant
Bit rate : 192 Kbps
Channel(s) : 2 channels
Channel positions : Front: L R
Sampling rate : 48.0 KHz
Bit depth : 16 bits
Compression mode : Lossy
Stream size : 126 MiB (9%)
Alignment : Split accross interleaves
Interleave, duration : 42 ms (1.00 video frame)
Interleave, preload duration : 500 ms
Audio #2
ID : 2
Format : AC-3
Format/Info : Audio Coding 3
Mode extension : CM (complete main)
Format settings, Endianness : Big
Codec ID : 2000
Duration : 1h 32mn
Bit rate mode : Constant
Bit rate : 192 Kbps
Channel(s) : 2 channels
Channel positions : Front: L R
Sampling rate : 48.0 KHz
Bit depth : 16 bits
Compression mode : Lossy
Stream size : 126 MiB (9%)
Alignment : Split accross interleaves
Interleave, duration : 42 ms (1.00 video frame)
Interleave, preload duration : 500 ms
Audio #3
ID : 3
Format : MPEG Audio
Format version : Version 1
Format profile : Layer 3
Mode : Joint stereo
Mode extension : MS Stereo
Codec ID : 55
Codec ID/Hint : MP3
Duration : 1h 32mn
Bit rate mode : Constant
Bit rate : 128 Kbps
Channel(s) : 2 channels
Sampling rate : 48.0 KHz
Compression mode : Lossy
Stream size : 84.3 MiB (6%)
Alignment : Aligned on interleaves
Interleave, duration : 1043 ms (25.00 video frames)
Interleave, preload duration : 1008 ms



Скачать Жизнь.дерьмо.Life.Stinks.(Мел.Брукс.Mel.Brooks).[1991.г.Комедия.DVDRip].[MVO].+.[AVO].torrent без регистрации
Золото ЗОЛОТАЯ РАЗДАЧА! СКАЧАННОЕ НЕ ЗАСЧИТЫВАЕТСЯ! Золото
Дата: Зарегистрирован   [ Тип: внутренний ] Как тут cкачать?
MAGNET ссылка
MAGNET ссылка


Скачать .torrent

55 KB

Статус: проверено
Скачан: торрент - 122 раз, раздача полностью - 2 раз
Размер: 1,37 GB
Оценка:  5 (Голосов: 2)
Поблагодарили: 4
Поделиться ссылкой на эту раздачу с друзьями:
В контактеFacebookОдноклассникиTwitterLivejournalМой МирLiveinternet
 

 
Показать сообщения:    


Вы не можете начинать темы
Вы не можете отвечать на сообщения
Вы не можете редактировать свои сообщения
Вы не можете удалять свои сообщения
Вы не можете голосовать в опросах
Вы не можете прикреплять файлы к сообщениям
Вы можете скачивать файлы