Loading...
Error

Скачать Эон Флакс / AEon Flux (Карин Кусама / Karyn Kusama) [2005 г., боевик, фантастика, HDRip-AVC] [DUB] + [AVO] торрент без регистрации

 
Статистика раздачи
Размер:  1,74 GB   |    Скачан:  126 раз
Сидов:  1  [  0 KB/s  ]  
 
Автор Сообщение

leon030982

[] 

Эон Флакс / AEon Flux


Год выхода: 2005
Страна: Германия, США
Студия: Paramount Pictures
Жанр: боевик, фантастика
Продолжительность: 01:32:51
Перевод 1: Профессиональный (полное дублирование)
Перевод 2: Авторский (одноголосный) [Королёв]

Режиссёр: Карин Кусама / Karyn Kusama

В ролях: Шарлиз Терон, Мартон Чокаш, Джонни Ли Миллер, Софи Оконедо, Фрэнсис МакДорманд, Пит Постлетуэйт, Амелия Уорнер, Кэролайн Чикези, Николай Кински, Пэтерсон Джозеф

О фильме:
Действие происходит в далеком будущем, когда после глобальной катастрофы погибло практически все население Земли. Оставшиеся люди живут в защищенном городе-государстве Бренна, управляемом советом ученых. Красавица Эон Флакс, лучший агент подпольной повстанческой организации "Моника". Ее возможности, также как мотивы и действия, за пределами объяснимого. Когда Флакс посылают убить президента, она открывает для себя целый мир тайн и секретов...



[b]Качество:
HDRip-AVC
Формат: H.264
Видео: 960 x 408 (2:35:1), 23.976 fps, AVC (х264) High@L4.1, ~ 1856 Kbps, 0.198 bit/pixel
Аудио 1: 48 kHz, AC3 Dolby Digital, 3/2 (L,C,R,l,r) + LFE ch, ~384 kbps [DUB]
Аудио 2: 48 kHz, AC3 5.1, ~ 448 kbps [AVO]
E:\INTERNET\Aeon Flux (2005) HDRip-AVC. [DUB] + [AVO].mkv
General
Unique ID : 211732220320686910822789685131692498043 (0x9F4A246FC93E69A3B2E231A8C4C85C7B)
Complete name : E:\INTERNET\Aeon Flux (2005) HDRip-AVC. [DUB] + [AVO].mkv
Format : Matroska
Format version : Version 2
File size : 1.74 GiB
Duration : 1h 32mn
Overall bit rate : 2 688 Kbps
Encoded date : UTC 2013-05-27 07:19:47
Writing application : mkvmerge v4.2.0 ('No Talking') ñáîðêà îò Jul 28 2010 18:38:23
Writing library : libebml v1.0.0 + libmatroska v1.0.0
Video #1
ID : 1
Format : AVC
Format/Info : Advanced Video Codec
Format profile : High@L4.1
Format settings, CABAC : Yes
Format settings, ReFrames : 4 frames
Muxing mode : Header stripping
Codec ID : V_MPEG4/ISO/AVC
Duration : 1h 32mn
Bit rate : 1 856 Kbps
Width : 960 pixels
Height : 408 pixels
Display aspect ratio : 2.35:1
Frame rate mode : Constant
Frame rate : 23.976 fps
Color space : YUV
Chroma subsampling : 4:2:0
Bit depth : 8 bits
Scan type : Progressive
Bits/(Pixel*Frame) : 0.198
Stream size : 1.17 GiB (67%)
Writing library : x264 core 115 r1937 aa21558
Encoding settings : cabac=1 / ref=3 / deblock=1:-1:-1 / analyse=0x3:0x113 / me=hex / subme=7 / psy=1 / psy_rd=1.00:0.10 / mixed_ref=1 / me_range=16 / chroma_me=1 / trellis=1 / 8x8dct=1 / cqm=0 / deadzone=21,11 / fast_pskip=1 / chroma_qp_offset=-3 / threads=6 / sliced_threads=0 / nr=0 / decimate=1 / interlaced=0 / bluray_compat=0 / constrained_intra=0 / bframes=3 / b_pyramid=2 / b_adapt=1 / b_bias=0 / direct=1 / weightb=1 / open_gop=0 / weightp=2 / keyint=250 / keyint_min=23 / scenecut=40 / intra_refresh=0 / rc_lookahead=40 / rc=2pass / mbtree=1 / bitrate=1856 / ratetol=1.0 / qcomp=0.60 / qpmin=0 / qpmax=69 / qpstep=4 / cplxblur=20.0 / qblur=0.5 / ip_ratio=1.40 / aq=1:1.00
Default : Yes
Forced : No
Audio #2
ID : 2
Format : AC-3
Format/Info : Audio Coding 3
Mode extension : CM (complete main)
Format settings, Endianness : Big
Muxing mode : Header stripping
Codec ID : A_AC3
Duration : 1h 32mn
Bit rate mode : Constant
Bit rate : 384 Kbps
Channel(s) : 6 channels
Channel positions : Front: L C R, Side: L R, LFE
Sampling rate : 48.0 KHz
Bit depth : 16 bits
Compression mode : Lossy
Stream size : 255 MiB (14%)
Default : Yes
Forced : No
Audio #3
ID : 3
Format : AC-3
Format/Info : Audio Coding 3
Mode extension : CM (complete main)
Format settings, Endianness : Big
Muxing mode : Header stripping
Codec ID : A_AC3
Duration : 1h 32mn
Bit rate mode : Constant
Bit rate : 448 Kbps
Channel(s) : 6 channels
Channel positions : Front: L C R, Side: L R, LFE
Sampling rate : 48.0 KHz
Bit depth : 16 bits
Compression mode : Lossy
Stream size : 298 MiB (17%)
Title : Korolev
Language : Russian
Default : No
Forced : No




Скачать Эон.Флакс.AEon.Flux.(Карин.Кусама.Karyn.Kusama).[2005.г.боевик.фантастика.HDRip-AVC].[DUB].+.[AVO].torrent без регистрации
Золото ЗОЛОТАЯ РАЗДАЧА! СКАЧАННОЕ НЕ ЗАСЧИТЫВАЕТСЯ! Золото
Дата: Зарегистрирован   [ Тип: внутренний ] Как тут cкачать?
MAGNET ссылка
MAGNET ссылка


Скачать .torrent

18 KB

Статус: проверено DHT
Скачан: торрент - 126 раз, раздача полностью - 2437 раз
Размер: 1,74 GB
Оценка:  5 (Голосов: 3)
Поблагодарили: 7
Поделиться ссылкой на эту раздачу с друзьями:
В контактеFacebookОдноклассникиTwitterLivejournalМой МирLiveinternet
 

 
Показать сообщения:    


Вы не можете начинать темы
Вы не можете отвечать на сообщения
Вы не можете редактировать свои сообщения
Вы не можете удалять свои сообщения
Вы не можете голосовать в опросах
Вы не можете прикреплять файлы к сообщениям
Вы можете скачивать файлы