Loading...
Error

Скачать Жандарм из Сен-Тропе / Le Gendarme de St. Tropez (Жан Жиро) [1964, комедия, HDRip] [MVO] торрент без регистрации

 
Статистика раздачи
Размер:  744 MB   |    Скачан:  113 раз

Полного источника не было: 23 минуты

 
Автор Сообщение

Marsianka

[] 

Страна: Франция
Жанр: комедия
Год выпуска: 1964
Продолжительность: 01:39:19

Перевод: Профессиональный (многоголосый закадровый) РЕН-ТВ
Cубтитры: нет
Режиссер: Жан Жиро / Jean Girault

В ролях: Луи Де Фюнес /Louis de Funes/, Мишель Галабрю /Michel Galabru/, Женевьева Град /Genevie`ve Grad/, Жан Лефевр /Jean Lefebvre/, Кристиан Марин /Christian Marin/, Бертран Жан-Поль /Jean-Pierre Bertrand

Описание: В очаровательный курортный городок на повышение переводят бравого сержанта Крюшо с красоткой - дочерью Николь. Добрые, но придурковатые жандармы принимают нового коллегу с радостью. Но она быстро проходит... Еще более бестолковый, чем подчиненные Крюшо с рвением заступает на защиту закона. Опасная охота на нудистов, тренировки по быстрому раздеванию, поиски украденной из музея картины и многое другое...

Крюшо! Работы у нас непочатый край...Так что в курс дела введу вас завтра.



Качество видео: HDRip
Формат видео: AVI
Видео кодек: XviD
Аудио кодек: MP3
Видео: 672x288 (2.33:1), 24.000 fps, XviD build 50 ~911 kbps avg, 0.20 bit/pixel
Аудио: 48 kHz, MPEG Layer 3, 2 ch, ~128.00 kbps avg
Раздача от:
D:Le.gendarme.de.Saint-Tropez.1964.HDRip.745. [YTN]_by_dexter_lex..avi
General
Complete name : D:Le.gendarme.de.Saint-Tropez.1964.HDRip.745. [YTN]_by_dexter_lex..avi
Format : AVI
Format/Info : Audio Video Interleave
File size : 744 MiB
Duration : 1h 39mn
Overall bit rate : 1 048 Kbps
Writing application : VirtualDubMod 1.5.10.3 | www.virtualdub-fr.org || (build 2550/release)
Writing library : VirtualDubMod build 2550/release
Video #0
ID : 0
Format : MPEG-4 Visual
Format profile : Advanced Simple@L5
Format settings, BVOP : 1
Format settings, QPel : No
Format settings, GMC : No warppoints
Format settings, Matrix : Custom
Codec ID : XVID
Codec ID/Hint : XviD
Duration : 1h 39mn
Bit rate : 911 Kbps
Width : 672 pixels
Height : 288 pixels
Display aspect ratio : 2.33:1
Frame rate : 24.000 fps
Color space : YUV
Chroma subsampling : 4:2:0
Bit depth : 8 bits
Scan type : Progressive
Compression mode : Lossy
Bits/(Pixel*Frame) : 0.196
Stream size : 646 MiB (87%)
Writing library : XviD 1.2.1 (UTC 2008-12-04)
Audio #1
ID : 1
Format : MPEG Audio
Format version : Version 1
Format profile : Layer 3
Codec ID : 55
Codec ID/Hint : MP3
Duration : 1h 39mn
Bit rate mode : Constant
Bit rate : 128 Kbps
Channel(s) : 2 channels
Sampling rate : 48.0 KHz
Compression mode : Lossy
Stream size : 90.8 MiB (12%)
Alignment : Aligned on interleaves
Interleave, duration : 42 ms (1.00 video frame)
Interleave, preload duration : 504 ms
Writing library : LAME3.99r
Encoding settings : -m s -V 4 -q 2 -lowpass 17 -b 128



Скачать Жандарм.из.Сен-Тропе.Le.Gendarme.de.St.Tropez.(Жан.Жиро).[1964.комедия.HDRip].[MVO].torrent без регистрации
Золото ЗОЛОТАЯ РАЗДАЧА! СКАЧАННОЕ НЕ ЗАСЧИТЫВАЕТСЯ! Золото
Дата: Зарегистрирован   [ Тип: внутренний ] Как тут cкачать?
MAGNET ссылка
MAGNET ссылка


Скачать .torrent

15 KB

Статус: проверено DHT
Скачан: торрент - 113 раз, раздача полностью - 60 раз
Размер: 744 MB
Оценка:  - (Голосов: 0)
Поблагодарили: 2
Поделиться ссылкой на эту раздачу с друзьями:
В контактеFacebookОдноклассникиTwitterLivejournalМой МирLiveinternet
 

 
Показать сообщения:    


Вы не можете начинать темы
Вы не можете отвечать на сообщения
Вы не можете редактировать свои сообщения
Вы не можете удалять свои сообщения
Вы не можете голосовать в опросах
Вы не можете прикреплять файлы к сообщениям
Вы можете скачивать файлы