Loading...
Error

Скачать Тот, кто убивает - Тень прошлого / Den som dr–ber - Fortidens skygge (сезон 01) (Каспер Барфоэд, Ниельс Нёрлёв Хансен, Биргер Ларсен) [2011, боевик, триллер, криминал, BDRip] [720p] [MVO (Baibako)] торрент без регистрации

 
Статистика раздачи
Размер:  17,33 GB   |    Скачан:  146 раз
Сидов:  1  [  0 KB/s  ]  
 
Автор Сообщение

МихаНЕзатор

[] 

Название: Тот, кто убивает Тень прошлого
Оригинальное название: Den som dr–ber - Fortidens skygge
Год выпуска: 2011
Жанр: боевик, триллер, криминал
Режиссер: Каспер Барфоэд, Ниельс Нёрлёв Хансен, Биргер Ларсен

В ролях: Лаура Бах, Якоб Седергрен, Ларс Миккельсен, Лерке Винтер Андерсен, Фредерик Мельдаль Нёргор, Ибен Дорнер Эстергорд, Бенжамин Брюэль, Карстен Бьорнлунн, Давид Денсик, Ульрих Томсен

Описание: В центре фильма опытный следователь Катрин Рис Йенсен, которая вот уже много лет руководит расследованиями уголовных преступлений в столице Дании. В детстве пережив насилие со стороны отчима, она ищет насильников, маньяков и убийц, жертвуя собой и своей личной жизнью. В ее расследованиях ей помогает Стиг Мёльбек, метящий на место Катрин Рис, а также психолог Томас Шэффер, имеющий в своем прошлом темные страницы. Не раз он примет рискованное решение, которое может привести к тяжелым последствиям.



Страна: Дания
Продолжительность: 01:26:59
Перевод: Профессиональный (многоголосый, закадровый) - Baibako
Субтитры: Нет

Перевод: Янина Галицкая
Озвучка: Татьяна Оболевич, Артемий Мирон и Акмал Гурезов
Монтаж: Павел Дежин
Обложка: tvblog

Качество: BDRip 720p
Формат: MKV
Видео: AVC, 4700 Кбит/сек, 1280x720
Аудио rus: AC3, 6 ch, 48,0 КГц, 384 Кбит/сек
Аудио dan: AC3, 6 ch, 48,0 КГц, 640 Кбит/сек

Релиз от:

07.07.2013 г. торент обновлён, добавлена 9-10 серия, сезон полностью!
бщее
Уникальный идентификатор : 243131797563678843142943817371542055522 (0xB6E97B1EA022964E91DCB702EBF36A62)
Полное имя : D:Den.som.draeber.s01e01-02.HD720p.BluRay.Rus.Dan.BaibaKo.tv.mkv
Формат : Matroska
Размер файла : 3,48 Гбайт
Продолжительность : 1 ч. 26 м.
Общий поток : 5723 Кбит/сек
Название фильма : BaibaKo.tv presents - Тот, кто убивает 1x01-02 Труп в лесу
Дата кодирования : UTC 2010-02-22 21:41:31
Программа кодирования : mkvmerge v5.9.0 ('On The Loose') built on Dec 9 2012 15:37:01
Библиотека кодирования : libebml v1.3.0 + libmatroska v1.4.0

Видео
Идентификатор : 1
Формат : AVC
Формат/Информация : Advanced Video Codec
Профиль формата : High@L4.1
Параметр CABAC формата : Да
Параметр ReFrames формата : 9 кадров
Идентификатор кодека : V_MPEG4/ISO/AVC
Продолжительность : 1 ч. 26 м.
Битрейт : 4700 Кбит/сек
Ширина : 1280 пикс.
Высота : 720 пикс.
Соотношение сторон : 16:9
Частота кадров : 25,000 кадр/сек
Цветовое пространство : YUV
Подвыборка цветности : 4:2:0
Битовая глубина : 8 бит
Тип развёртки : Прогрессивная
Бит/(Пиксели*Кадры) : 0.204
Размер потока : 2,79 Гбайт (80%)
Заголовок : Video PAL - f79
Библиотека кодирования : x264 core 118 r2085 8a62835
Настройки программы : cabac=1 / ref=9 / deblock=1:-3:-3 / analyse=0x3:0x133 / me=tesa / subme=10 / psy=1 / psy_rd=1.00:0.15 / mixed_ref=1 / me_range=24 / chroma_me=1 / trellis=2 / 8x8dct=1 / cqm=0 / deadzone=21,11 / fast_pskip=0 / chroma_qp_offset=-3 / threads=16 / sliced_threads=0 / nr=0 / decimate=1 / interlaced=0 / bluray_compat=0 / constrained_intra=0 / bframes=6 / b_pyramid=2 / b_adapt=2 / b_bias=0 / direct=3 / weightb=1 / open_gop=0 / weightp=2 / keyint=250 / keyint_min=25 / scenecut=40 / intra_refresh=0 / rc=2pass / mbtree=0 / bitrate=4700 / ratetol=1.0 / qcomp=0.60 / qpmin=10 / qpmax=51 / qpstep=4 / cplxblur=20.0 / qblur=0.5 / ip_ratio=1.40 / pb_ratio=1.30 / aq=1:0.80
Язык : Danish

Аудио #1
Идентификатор : 2
Формат : AC-3
Формат/Информация : Audio Coding 3
Расширение режима : CM (complete main)
Идентификатор кодека : A_AC3
Продолжительность : 1 ч. 26 м.
Вид битрейта : Постоянный
Битрейт : 384 Кбит/сек
Каналы : 6 каналов
Расположение каналов : Front: L C R, Side: L R, LFE
Частота : 48,0 КГц
Битовая глубина : 16 бит
Метод сжатия : С потерями
Размер потока : 239 Мбайт (7%)
Заголовок : Rus BaibaKo.tv DD5.1
Язык : Russian

Аудио #2
Идентификатор : 3
Формат : AC-3
Формат/Информация : Audio Coding 3
Расширение режима : CM (complete main)
Идентификатор кодека : A_AC3
Продолжительность : 1 ч. 26 м.
Вид битрейта : Постоянный
Битрейт : 640 Кбит/сек
Каналы : 6 каналов
Расположение каналов : Front: L C R, Side: L R, LFE
Частота : 48,0 КГц
Битовая глубина : 16 бит
Метод сжатия : С потерями
Размер потока : 398 Мбайт (11%)
Заголовок : Dan DD5.1
Язык : Danish

Меню
00:00:00.000 : da:00:00:00.000
00:07:17.080 : da:00:07:17.080
00:14:20.520 : da:00:14:20.520
00:21:11.160 : da:00:21:11.160
00:30:05.680 : da:00:30:05.680
00:37:35.600 : da:00:37:35.600
00:46:08.520 : da:00:46:08.520
00:53:48.600 : da:00:53:48.600
01:00:14.760 : da:01:00:14.760
01:05:51.400 : da:01:05:51.400
01:15:00.520 : da:01:15:00.520
01:23:57.240 : da:01:23:57.240



Скачать Тот.кто.убивает.-.Тень.прошлого.Den.som.dr–ber.-.Fortidens.skygge.(сезон.01).(Каспер.Барфоэд.Ниельс.Нёрлёв.Хансен.Биргер.Ларсен).[2011.боевик.триллер.криминал.BDRip].[720p].[MVO.(Baibako)].torrent без регистрации
Золото ЗОЛОТАЯ РАЗДАЧА! СКАЧАННОЕ НЕ ЗАСЧИТЫВАЕТСЯ! Золото
Дата: Зарегистрирован   [ Тип: внутренний ] Как тут cкачать?
MAGNET ссылка
MAGNET ссылка


Скачать .torrent

44 KB

Статус: проверено DHT
Скачан: торрент - 146 раз, раздача полностью - 21 раз
Размер: 17,33 GB
Оценка:  - (Голосов: 0)
Поблагодарили: 5
Поделиться ссылкой на эту раздачу с друзьями:
В контактеFacebookОдноклассникиTwitterLivejournalМой МирLiveinternet
 

 

МихаНЕзатор

[] 

Раздача обновлена
 
Показать сообщения:    


Вы не можете начинать темы
Вы не можете отвечать на сообщения
Вы не можете редактировать свои сообщения
Вы не можете удалять свои сообщения
Вы не можете голосовать в опросах
Вы не можете прикреплять файлы к сообщениям
Вы можете скачивать файлы