Loading...
Error

Скачать Тот, кто убивает - Тень прошлого / Den som dr–ber - Fortidens skygge (сезон 01) (Каспер Барфоэд, Ниельс Нёрлёв Хансен, Биргер Ларсен) [2011, боевик, триллер, криминал, BDRip-AVC] [MVO (Baibako)] торрент без регистрации

 
Статистика раздачи
Размер:  5,56 GB   |    Скачан:  181 раз
Сидов:  1  [  0 KB/s  ]  
 
Автор Сообщение

МихаНЕзатор

[] 

Название: Тот, кто убивает Тень прошлого
Оригинальное название: Den som dr–ber - Fortidens skygge
Год выпуска: 2011
Жанр: Боевик, триллер, криминал
Режиссер: Каспер Барфоэд, Ниельс Нёрлёв Хансен, Биргер Ларсен

В ролях: Лаура Бах, Якоб Седергрен, Ларс Миккельсен, Лерке Винтер Андерсен, Фредерик Мельдаль Нёргор, Ибен Дорнер Эстергорд, Бенжамин Брюэль, Карстен Бьорнлунн, Давид Денсик, Ульрих Томсен

Описание: В центре фильма опытный следователь Катрин Рис Йенсен, которая вот уже много лет руководит расследованиями уголовных преступлений в столице Дании. В детстве пережив насилие со стороны отчима, она ищет насильников, маньяков и убийц, жертвуя собой и своей личной жизнью. В ее расследованиях ей помогает Стиг Мёльбек, метящий на место Катрин Рис, а также психолог Томас Шэффер, имеющий в своем прошлом темные страницы. Не раз он примет рискованное решение, которое может привести к тяжелым последствиям.



Страна: Дания
Продолжительность: 01:26:59
Перевод: Профессиональный (многоголосый, закадровый) - Baibako
Субтитры: Нет

Перевод: Янина Галицкая
Озвучка: Татьяна Оболевич, Артемий Мирон и Акмал Гурезов
Монтаж: Павел Дежин
Обложка: tvblog

Качество: BDRip-AVC
Формат: MKV
Видео: AVC, 1536 Кбит/сек, 720x40
Аудио rus: ACС, 2 ch, 48,0 КГц, 192 Кбит/сек
Аудио dan: ACС, 2 ch, 48,0 КГц, 192 Кбит/сек

Релиз от:

07.07.2013 г. торент обновлён, добавлена 9-10 серия, сезон полностью!
бщее
Полное имя : D:Den.som.draeber.s01e01-02.BDRip.x264.Rus.Dan.BaibaKo.tv.mp4
Формат : MPEG-4
Профиль формата : Base Media
Идентификатор кодека : isom
Размер файла : 1,17 Гбайт
Продолжительность : 1 ч. 26 м.
Общий поток : 1922 Кбит/сек
Дата кодирования : UTC 2013-05-17 23:40:44
Дата пометки : UTC 2013-05-17 23:40:44

Видео
Идентификатор : 1
Формат : AVC
Формат/Информация : Advanced Video Codec
Профиль формата : Baseline@L3.0
Параметр CABAC формата : Нет
Параметр ReFrames формата : 3 кадра
Идентификатор кодека : avc1
Идентификатор кодека/Информация : Advanced Video Coding
Продолжительность : 1 ч. 26 м.
Вид битрейта : Переменный
Битрейт : 1536 Кбит/сек
Максимальный битрейт : 10000 Кбит/сек
Ширина : 720 пикс.
Высота : 400 пикс.
Соотношение сторон : 16:9
Режим частоты кадров : Постоянный
Частота кадров : 25,000 кадр/сек
Цветовое пространство : YUV
Подвыборка цветности : 4:2:0
Битовая глубина : 8 бит
Тип развёртки : Прогрессивная
Бит/(Пиксели*Кадры) : 0.213
Размер потока : 954 Мбайт (80%)
Заголовок : Den som draeber 1x01-02 2011 720p BluRay x264-f79
Библиотека кодирования : x264 core 129 r2245 bc13772
Настройки программы : cabac=0 / ref=3 / deblock=1:0:0 / analyse=0x1:0x111 / me=hex / subme=7 / psy=1 / psy_rd=1.00:0.00 / mixed_ref=1 / me_range=16 / chroma_me=1 / trellis=1 / 8x8dct=0 / cqm=0 / deadzone=21,11 / fast_pskip=1 / chroma_qp_offset=-2 / threads=6 / lookahead_threads=1 / sliced_threads=0 / nr=0 / decimate=1 / interlaced=0 / bluray_compat=0 / constrained_intra=0 / bframes=0 / weightp=0 / keyint=250 / keyint_min=25 / scenecut=40 / intra_refresh=0 / rc_lookahead=40 / rc=2pass / mbtree=1 / bitrate=1536 / ratetol=1.0 / qcomp=0.60 / qpmin=0 / qpmax=69 / qpstep=4 / cplxblur=20.0 / qblur=0.5 / vbv_maxrate=10000 / vbv_bufsize=10000 / nal_hrd=vbr / ip_ratio=1.40 / aq=1:1.00
Дата кодирования : UTC 2013-05-16 07:13:13
Дата пометки : UTC 2013-05-17 23:45:37

Аудио #1
Идентификатор : 2
Формат : AAC
Формат/Информация : Advanced Audio Codec
Профиль формата : LC
Идентификатор кодека : 40
Продолжительность : 1 ч. 26 м.
Вид битрейта : Переменный
Битрейт : 192 Кбит/сек
Максимальный битрейт : 200 Кбит/сек
Каналы : 2 канала
Расположение каналов : Front: L R
Частота : 48,0 КГц
Метод сжатия : С потерями
Размер потока : 119 Мбайт (10%)
Язык : Russian
Дата кодирования : UTC 2013-05-17 23:26:25
Дата пометки : UTC 2013-05-17 23:45:37

Аудио #2
Идентификатор : 3
Формат : AAC
Формат/Информация : Advanced Audio Codec
Профиль формата : LC
Идентификатор кодека : 40
Продолжительность : 1 ч. 26 м.
Вид битрейта : Переменный
Битрейт : 192 Кбит/сек
Максимальный битрейт : 202 Кбит/сек
Каналы : 2 канала
Расположение каналов : Front: L R
Частота : 48,0 КГц
Метод сжатия : С потерями
Размер потока : 119 Мбайт (10%)
Язык : Danish
Дата кодирования : UTC 2013-05-17 23:33:39
Дата пометки : UTC 2013-05-17 23:45:37



Скачать Тот.кто.убивает.-.Тень.прошлого.Den.som.dr–ber.-.Fortidens.skygge.(сезон.01).(Каспер.Барфоэд.Ниельс.Нёрлёв.Хансен.Биргер.Ларсен).[2011.боевик.триллер.криминал.BDRip-AVC].[MVO.(Baibako)].torrent без регистрации
Золото ЗОЛОТАЯ РАЗДАЧА! СКАЧАННОЕ НЕ ЗАСЧИТЫВАЕТСЯ! Золото
Дата: Зарегистрирован   [ Тип: внутренний ] Как тут cкачать?
MAGNET ссылка
MAGNET ссылка


Скачать .torrent

29 KB

Статус: проверено DHT
Скачан: торрент - 181 раз, раздача полностью - 34 раз
Размер: 5,56 GB
Оценка:  5 (Голосов: 3)
Поблагодарили: 13
Поделиться ссылкой на эту раздачу с друзьями:
В контактеFacebookОдноклассникиTwitterLivejournalМой МирLiveinternet
 

 

МихаНЕзатор

[] 

Раздача обновлена.
 
Показать сообщения:    


Вы не можете начинать темы
Вы не можете отвечать на сообщения
Вы не можете редактировать свои сообщения
Вы не можете удалять свои сообщения
Вы не можете голосовать в опросах
Вы не можете прикреплять файлы к сообщениям
Вы можете скачивать файлы