Loading...
Error

Скачать Жандарм женится / The Gendarme Gets Married / Le gendarme se marie (Жан Жиро) [1968, комедия, HDRip] [Dub] торрент без регистрации

 
Статистика раздачи
Размер:  744 MB   |    Скачан:  117 раз
Сидов:  1  [  0 KB/s  ]  
 
Автор Сообщение

Marsianka

[] 

Год выпуска: 1968
Страна: Франция, Италия
Жанр: комедия
Продолжительность: 01:29:18
Перевод: Профессиональный (полное дублирование) Советский
Cубтитры: нет

Режиссер: Жан Жиро / Jean Girault

В ролях: Луи де Фюнес, Жан Лефевр, Женевьев Град, Кристиан Марен, Ив Венсан, Ги Гроссо, Мишель Модо, Маурицио Бонулья, Марио Давид, Клоди Жансак, Мишель Галабрю, Жан-Пьер Бертран

О фильме: Пробил долгожданный «Час Икс». На календаре у старшины жандармов первое июля, а это значит, что во Франции настало время всеобщих отпусков.
Толпы обезумевших от жажды развлечений туристов ринулись к морю, и наши старые знакомые блюстители порядка из курортного Сен-Тропе должны во что бы то ни стало, любой ценой сдержать бурный натиск отдыхающих.
И вот, за отчаянно-быструю езду по горным дорогам Крюшо арестовывает очаровательную Жозефу, которая оказывается вдовой полковника жандармерии.



Качество: HDRip
Формат: AVI
Видео кодек: XviD
Аудио кодек: MP3
Видео: 672x288 (2.33:1), 24.000 fps, XviD build 50 ~1027 kbps avg, 0.22 bit/pixel
Аудио: 48 kHz, MPEG Layer 3, 2 ch, ~128.00 kbps avg
Раздача от:
D:Le.gendarme.se.marie.1968.HDRip.DUB.[YTN]_by_dexter_lex.avi
General
Complete name : D:Le.gendarme.se.marie.1968.HDRip.DUB.[YTN]_by_dexter_lex.avi
Format : AVI
Format/Info : Audio Video Interleave
File size : 744 MiB
Duration : 1h 29mn
Overall bit rate : 1 164 Kbps
Writing application : VirtualDubMod 1.5.10.3 | www.virtualdub-fr.org || (build 2550/release)
Writing library : VirtualDubMod build 2550/release
Video #0
ID : 0
Format : MPEG-4 Visual
Format profile : Advanced Simple@L5
Format settings, BVOP : 1
Format settings, QPel : No
Format settings, GMC : No warppoints
Format settings, Matrix : Custom
Codec ID : XVID
Codec ID/Hint : XviD
Duration : 1h 29mn
Bit rate : 1 027 Kbps
Width : 672 pixels
Height : 288 pixels
Display aspect ratio : 2.33:1
Frame rate : 24.000 fps
Color space : YUV
Chroma subsampling : 4:2:0
Bit depth : 8 bits
Scan type : Progressive
Compression mode : Lossy
Bits/(Pixel*Frame) : 0.221
Stream size : 656 MiB (88%)
Writing library : XviD 1.2.1 (UTC 2008-12-04)
Audio #1
ID : 1
Format : MPEG Audio
Format version : Version 1
Format profile : Layer 3
Codec ID : 55
Codec ID/Hint : MP3
Duration : 1h 29mn
Bit rate mode : Constant
Bit rate : 128 Kbps
Channel(s) : 2 channels
Sampling rate : 48.0 KHz
Compression mode : Lossy
Stream size : 81.8 MiB (11%)
Alignment : Aligned on interleaves
Interleave, duration : 42 ms (1.00 video frame)
Interleave, preload duration : 504 ms
Writing library : LAME3.99r
Encoding settings : -m s -V 4 -q 2 -lowpass 17 -b 128



Скачать Жандарм.женится.The.Gendarme.Gets.Married.Le.gendarme.se.marie.(Жан.Жиро).[1968.комедия.HDRip].[Dub].torrent без регистрации
Золото ЗОЛОТАЯ РАЗДАЧА! СКАЧАННОЕ НЕ ЗАСЧИТЫВАЕТСЯ! Золото
Дата: Зарегистрирован   [ Тип: внутренний ] Как тут cкачать?
MAGNET ссылка
MAGNET ссылка


Скачать .torrent

15 KB

Статус: проверено DHT
Скачан: торрент - 117 раз, раздача полностью - 17 раз
Размер: 744 MB
Оценка:  - (Голосов: 0)
Поблагодарили: 1
Поделиться ссылкой на эту раздачу с друзьями:
В контактеFacebookОдноклассникиTwitterLivejournalМой МирLiveinternet
 

 
Показать сообщения:    


Вы не можете начинать темы
Вы не можете отвечать на сообщения
Вы не можете редактировать свои сообщения
Вы не можете удалять свои сообщения
Вы не можете голосовать в опросах
Вы не можете прикреплять файлы к сообщениям
Вы можете скачивать файлы