Loading...
Error

Скачать Двойник / The Assignment (Кристиан Дюге) [1997, боевик, триллер, криминал, DVDRip-AVC] [Dub]+[MVO] торрент без регистрации

 
Статистика раздачи
Размер:  1,94 GB   |    Скачан:  106 раз
Сидов:  1  [  0 KB/s  ]  
 
Автор Сообщение

Marsianka

[] 

Информация о фильме
Название: Двойник
Оригинальное название: The Assignment
Год выхода: 1997
Жанр: боевик, триллер, криминал
Режиссер: Кристиан Дюге
В ролях: Эйдан Куинн, Дональд Сазерленд, Бен Кингсли, Клаудиа Ферри, Селин Бонье, Власта Врана, Лилиана Коморовска, Вон Флорес, Эл Уоксмен, Митчелл Дэвид Ротпан ...

О фильме:
Карлос Санчес, «Шакал». Многие годы этого имени было достаточно, чтобы вызвать страх у целой страны. Профессиональный террорист с холодным умом и безжалостным сердцем. Международный наемный убийца, который получал удовольствие, убивая невинных. Человек, от которого исходило зло и насилие.
Ему всегда удавалось уйти. 20 лет ФБР и Моссад считали его целью номер один. И каждый раз он ускользал как привидение в ночи. До тех пор, пока не появился Аннибал Рамирес, офицер флота, любящий муж и отец, у которого нет ничего общего с Карлосом, кроме одного: он, как две капли воды, похож на него



Страна: Канада
Продолжительность: 01:54:25
Перевод:
Профессиональный (дублированный),
Профессиональный (многоголосый)

Файл
Кодек: h.264
Качество: DVDRip
Видео: 710x576 @ 1010x576 (16:9), 25.000 fps, 1850 Kbps
Аудио #1: AC3, 384 Kbps, 48.0 KHz, 6 ch (Rus) Dub
Аудио #2: AC3, 192 Kbps, 48.0 KHz, 2 ch (Rus) MVO

Семпл
Полное имя : The.Assignment.1997.DVDRip.x264.mkv
Формат : Matroska
Версия формата : Version 4 / Version 2
Размер файла : 1,94 Гбайт
Продолжительность : 1 ч. 54 м.
Общий поток : 2427 Кбит/сек
Дата кодирования : UTC 2013-05-26 07:00:07
Программа кодирования : mkvmerge v6.2.0 ('Promised Land') built on Apr 28 2013 12:22:01
Библиотека кодирования : libebml v1.3.0 + libmatroska v1.4.0

Видео
Идентификатор : 1
Формат : AVC
Формат/Информация : Advanced Video Codec
Профиль формата : High@L4.1
Параметр CABAC формата : Да
Параметр ReFrames формата : 9 кадров
Идентификатор кодека : V_MPEG4/ISO/AVC
Продолжительность : 1 ч. 54 м.
Битрейт : 1850 Кбит/сек
Ширина : 710 пикселей
Высота : 576 пикселей
Соотношение сторон : 16:9
Соотношение сторон в оригинале : 16:9
Режим частоты кадров : Постоянный
Частота кадров : 25,000 кадров/сек
Цветовое пространство : YUV
Субдискретизация насыщенности : 4:2:0
Битовая глубина : 8 бит
Тип развёртки : Прогрессивная
Бит/(Пиксели*Кадры) : 0.181
Размер потока : 1,44 Гбайт (74%)
Заголовок : Eng
Библиотека кодирования : x264 core 133 r2334 a3ac64b
Настройки программы : cabac=1 / ref=9 / deblock=1:-2:-1 / analyse=0x3:0x113 / me=umh / subme=10 / psy=1 / psy_rd=1.00:0.15 / mixed_ref=1 / me_range=32 / chroma_me=1 / trellis=2 / 8x8dct=1 / cqm=0 / deadzone=21,11 / fast_pskip=1 / chroma_qp_offset=-3 / threads=2 / lookahead_threads=1 / sliced_threads=0 / nr=0 / decimate=1 / interlaced=0 / bluray_compat=0 / constrained_intra=0 / bframes=8 / b_pyramid=2 / b_adapt=2 / b_bias=0 / direct=3 / weightb=1 / open_gop=0 / weightp=2 / keyint=250 / keyint_min=25 / scenecut=40 / intra_refresh=0 / rc_lookahead=40 / rc=2pass / mbtree=1 / bitrate=1850 / ratetol=1.0 / qcomp=0.60 / qpmin=0 / qpmax=69 / qpstep=4 / cplxblur=20.0 / qblur=0.5 / ip_ratio=1.40 / aq=1:1.00
Язык : English
Default : Да
Forced : Нет

Аудио #1
Идентификатор : 2
Формат : AC-3
Формат/Информация : Audio Coding 3
Расширение режима : CM (complete main)
Параметр Endianness формата : Big
Идентификатор кодека : A_AC3
Продолжительность : 1 ч. 54 м.
Вид битрейта : Постоянный
Битрейт : 384 Кбит/сек
Каналы : 6 каналов
Расположение каналов : Front: L C R, Side: L R, LFE
Частота : 48,0 КГц
Битовая глубина : 16 бит
Метод сжатия : С потерями
Размер потока : 314 Мбайт (16%)
Заголовок : Rus Dub
Язык : Russian
Default : Да
Forced : Нет

Аудио #2
Идентификатор : 3
Формат : AC-3
Формат/Информация : Audio Coding 3
Профиль формата : Dolby Digital
Расширение режима : CM (complete main)
Параметр Endianness формата : Big
Идентификатор кодека : A_AC3
Продолжительность : 1 ч. 54 м.
Вид битрейта : Постоянный
Битрейт : 192 Кбит/сек
Каналы : 2 канала
Расположение каналов : Front: L R
Частота : 48,0 КГц
Битовая глубина : 16 бит
Метод сжатия : С потерями
Размер потока : 157 Мбайт (8%)
Заголовок : Rus MVO
Язык : Russian
Default : Нет
Forced : Нет

Меню
00:00:00.000 : en:Chapter 1
00:03:56.160 : en:Chapter 2
00:08:05.440 : en:Chapter 3
00:09:37.080 : en:Chapter 4
00:14:20.560 : en:Chapter 5
00:20:33.280 : en:Chapter 6
00:28:48.280 : en:Chapter 7
00:31:07.120 : en:Chapter 8
00:32:29.440 : en:Chapter 9
00:36:31.040 : en:Chapter 10
00:49:04.000 : en:Chapter 11
00:52:24.400 : en:Chapter 12
00:53:37.760 : en:Chapter 13
00:54:25.280 : en:Chapter 14
00:59:38.360 : en:Chapter 15
01:02:18.760 : en:Chapter 16
01:08:07.480 : en:Chapter 17
01:10:39.680 : en:Chapter 18
01:19:29.480 : en:Chapter 19
01:20:18.640 : en:Chapter 20
01:22:56.600 : en:Chapter 21
01:27:02.320 : en:Chapter 22
01:36:13.920 : en:Chapter 23
01:42:11.000 : en:Chapter 24
01:44:21.440 : en:Chapter 25
01:45:19.880 : en:Chapter 26
01:47:08.000 : en:Chapter 27
01:48:51.280 : en:Chapter 28



Скачать Двойник.The.Assignment.(Кристиан.Дюге).[1997.боевик.триллер.криминал.DVDRip-AVC].[Dub]+[MVO].torrent без регистрации
Золото ЗОЛОТАЯ РАЗДАЧА! СКАЧАННОЕ НЕ ЗАСЧИТЫВАЕТСЯ! Золото
Дата: Зарегистрирован   [ Тип: внутренний ] Как тут cкачать?
MAGNET ссылка
MAGNET ссылка


Скачать .torrent

20 KB

Статус: проверено DHT
Скачан: торрент - 106 раз, раздача полностью - 27 раз
Размер: 1,94 GB
Оценка:  - (Голосов: 0)
Поблагодарили: 1
Поделиться ссылкой на эту раздачу с друзьями:
В контактеFacebookОдноклассникиTwitterLivejournalМой МирLiveinternet
 

 
Показать сообщения:    


Вы не можете начинать темы
Вы не можете отвечать на сообщения
Вы не можете редактировать свои сообщения
Вы не можете удалять свои сообщения
Вы не можете голосовать в опросах
Вы не можете прикреплять файлы к сообщениям
Вы можете скачивать файлы