Loading...
Error

Скачать Аппалуза / Appaloosa (Эд Харрис / Ed Harris) [2008, вестерн. драма, криминал, BDRip] [AVO] (Ю.Сербин) торрент без регистрации

 
Статистика раздачи
Размер:  1,46 GB   |    Скачан:  115 раз

Полного источника не было: 22 минуты

 
Автор Сообщение

leon030982

[] 

Аппалуза / Appaloosa

«Чувствую, что нужно убить тебя».


Год выхода: 2008
Жанр: вестерн. драма, криминал
Страна: США
Студия: New Line Cinema, Axon Films, Groundswell Productions
Продолжительность: 01:55:25
Перевод: Авторский (одноголосный, закадровый) [Ю.Сербин]

Режиссер: Эд Харрис / Ed Harris

В ролях: Вигго Мортенсен, Рене Зеллвегер, Джереми Айронс, Эд Харрис, Лэнс Хенриксен, Рекс Линн, Ариадна Хил, Том Боуэр, Жирар Суон, Роберт Кнотт

О фильме:
История двух друзей, которых нанимают для защиты жителей одного городка, терроризируемых беспощадным хозяином ранчо. Однако их планы рушит очаровательная вдова



Качество: BDRip
Формат: AVI
Видео кодек: XVID
Аудио кодек: AC3
Видео: 720x304 (2.37:1), 23,976 fps, XviD build 50, ~1413 kbps, 0.27 bit/pixel
Audio : 48 kHz, AC3 Dolby Digital, 3/2 (L,C,R,l,r) + LFE ch, ~384.00 kbps avg
Полное имя : E:\Movies\Appaloosa.Serbin.avi
Формат : AVI
Формат/Информация : Audio Video Interleave
Размер файла : 1,46 Гбайт
Продолжительность : 1 ч. 55 м.
Общий поток : 1807 Кбит/сек
Название фильма : Appaloosa 2008
Программа кодирования : VirtualDubMod 1.5.10.2 (build 2542/release)

Видео
Идентификатор : 0
Формат : MPEG-4 Visual
Профиль формата : Advanced Simple@L5
Параметр BVOP формата : 1
Параметр QPel формата : Нет
Параметр GMC формата : Без точки перехода
Параметр матрицы формата : Выборочная
Идентификатор кодека : XVID
Идентификатор кодека/Подсказка : XviD
Продолжительность : 1 ч. 55 м.
Битрейт : 1414 Кбит/сек
Ширина : 720 пикс.
Высота : 304 пикс.
Соотношение сторон : 2,35:1
Частота кадров : 23,976 кадр/сек
Цветовое пространство : YUV
Подвыборка цветности : 4:2:0
Битовая глубина : 8 бит
Тип развёртки : Прогрессивная
Метод сжатия : С потерями
Бит/(Пиксели*Кадры) : 0.269
Размер потока : 1,14 Гбайт (78%)
Библиотека кодирования : XviD 1.2.1 (UTC 2008-12-04)

Аудио
Идентификатор : 1
Формат : AC-3
Формат/Информация : Audio Coding 3
Расширение режима : CM (complete main)
Идентификатор кодека : 2000
Продолжительность : 1 ч. 55 м.
Вид битрейта : Постоянный
Битрейт : 384 Кбит/сек
Каналы : 6 каналов
Расположение каналов : Front: L C R, Side: L R, LFE
Частота : 48,0 КГц
Битовая глубина : 16 бит
Метод сжатия : С потерями
Размер потока : 317 Мбайт (21%)
Выравнивание : Разделение по промежуткам
Продолжительность промежутка : 42 мс. (1,00 видеокадр)
Время предзагрузки промежутка : 500 ms



Скачать Аппалуза.Appaloosa.(Эд.Харрис.Ed.Harris).[2008.вестерн.драма.криминал.BDRip].[AVO].(Ю.Сербин).torrent без регистрации
Золото ЗОЛОТАЯ РАЗДАЧА! СКАЧАННОЕ НЕ ЗАСЧИТЫВАЕТСЯ! Золото
Дата: Зарегистрирован   [ Тип: внутренний ] Как тут cкачать?
MAGNET ссылка
MAGNET ссылка


Скачать .torrent

15 KB

Статус: проверено DHT
Скачан: торрент - 115 раз, раздача полностью - 14 раз
Размер: 1,46 GB
Оценка:  5 (Голосов: 2)
Поблагодарили: 3
Поделиться ссылкой на эту раздачу с друзьями:
В контактеFacebookОдноклассникиTwitterLivejournalМой МирLiveinternet
 

 
Показать сообщения:    


Вы не можете начинать темы
Вы не можете отвечать на сообщения
Вы не можете редактировать свои сообщения
Вы не можете удалять свои сообщения
Вы не можете голосовать в опросах
Вы не можете прикреплять файлы к сообщениям
Вы можете скачивать файлы