Loading...
Error

Скачать Мастер востока (Александр Казаков) [1992, боевик, DVB] торрент без регистрации

 
Статистика раздачи
Размер:  2,09 GB   |    Скачан:  115 раз
Сидов:  1  [  0 KB/s  ]  
 
Автор Сообщение

МихаНЕзатор

[] 

Жанр: боевик
Год выпуска: 1992
Продолжительность: 01.19.32
Перевод: Не требуется
Режиссёр: Александр Казаков
страна: Россия

В ролях: Ким Ин Хо, Шайыргуль Касымалиева, Саша Казаков, Валерий Гатаев, Олег Штефанко, Эрнст Романов, Инара Слуцка, Анатолий Гузенко, Сергей Куренков, Фёдор Смирнов, Касым Жакибаев, Михаил Ан, Петр Татарицкий (Алмазов), Владимир Пивоваров, Елена Беляева, Дмитрий Колчин,

Описание: «Чтобы стать непобедимым, нужно победить себя», говорит главный герой Ким Ин Хо, основатель школы в бывшем СССР, преподающий древние боевые искусства. Он учит своих воспитанников быть мужественными, честными и служить добру, но местные мафиози убивают его младшего брата, и Мастер Востока направляется в гнездо бандитов, чтобы отстоять свои идеалы



Качество видео: DVB
Формат видео: MPEG-TS

Видео: MPEG-2 Video, 720x576 (4:3), VBR, 25 fps, 3382 Kbps, 0.33 bit/pixel
Аудио: 48 kHz, MPEG Audio, 2 ch, 192 kbps

General
ID : 1 (0x1)
Complete name : C:Мастер востока_1992_DVB_by_dean10.ts
Format : MPEG-TS
File size : 2.09 GiB
Duration : 1h 19mn
Overall bit rate mode : Variable
Overall bit rate : 3 759 Kbps

Video
ID : 7081 (0x1BA9)
Menu ID : 1 (0x1)
Format : MPEG Video
Format version : Version 2
Format profile : Main@Main
Format settings, BVOP : Yes
Format settings, Matrix : Custom
Codec ID : 2
Duration : 1h 19mn
Bit rate mode : Variable
Bit rate : 3 380 Kbps
Maximum bit rate : 15.0 Mbps
Width : 720 pixels
Height : 576 pixels
Display aspect ratio : 4:3
Frame rate : 25.000 fps
Standard : PAL
Color space : YUV
Chroma subsampling : 4:2:0
Bit depth : 8 bits
Scan type : Interlaced
Scan order : Top Field First
Compression mode : Lossy
Bits/(Pixel*Frame) : 0.326
Stream size : 1.88 GiB (90%)

Audio
ID : 7082 (0x1BAA)
Menu ID : 1 (0x1)
Format : MPEG Audio
Format version : Version 1
Format profile : Layer 2
Codec ID : 3
Duration : 1h 19mn
Bit rate mode : Constant
Bit rate : 192 Kbps
Channel(s) : 2 channels
Sampling rate : 48.0 KHz
Compression mode : Lossy
Stream size : 109 MiB (5%)
Language : English



Скачать Мастер.востока.(Александр.Казаков).[1992.боевик.DVB].torrent без регистрации
Золото ЗОЛОТАЯ РАЗДАЧА! СКАЧАННОЕ НЕ ЗАСЧИТЫВАЕТСЯ! Золото
Дата: Зарегистрирован   [ Тип: внутренний ] Как тут cкачать?
MAGNET ссылка
MAGNET ссылка


Скачать .torrent

11 KB

Статус: проверено DHT
Скачан: торрент - 115 раз, раздача полностью - 11 раз
Размер: 2,09 GB
Оценка:  - (Голосов: 0)
Поблагодарили: 1
Поделиться ссылкой на эту раздачу с друзьями:
В контактеFacebookОдноклассникиTwitterLivejournalМой МирLiveinternet
 

 
Показать сообщения:    


Вы не можете начинать темы
Вы не можете отвечать на сообщения
Вы не можете редактировать свои сообщения
Вы не можете удалять свои сообщения
Вы не можете голосовать в опросах
Вы не можете прикреплять файлы к сообщениям
Вы можете скачивать файлы