Loading...
Error

Скачать Танго и Кэш / Tango & Cash (Андрей Кончаловский / Andrei Konchalovsky, Альберт Магноли/ Albert Magnoli) [1989, Боевик, Комедия, Криминал, Триллер, HDRip-AVC] 2x[AVO] + 2x[Dub] торрент без регистрации

 
Статистика раздачи
Размер:  2,24 GB   |    Скачан:  122 раза
Сидов:  1  [  0 KB/s  ]  
 
Автор Сообщение

leon030982

[] 

Танго и Кэш / Tango & Cash

«Two of L.A.'s top rival cops are going to have to work together... Even if it kills them.»


Год выпуска: 1989
Страна: США
Жанр: Боевик, Комедия, Криминал, Триллер
Продолжительность: 01:43:46
Перевод 1: Авторский (одноголосный, закадровый) [А. Гаврилов]
Перевод 2: Авторский (одноголосный, закадровый) [Горчаков]
Перевод 3: Профессиональный (дублированный) [Мосфильм]
Перевод 4: Профессиональный (дублированный) [Варус Видео]
Cубтитры: английские, французские, немецкие, итальянские, русские, испанские
Навигация по главам: есть

Режиссер: Андрей Кончаловский/ Andrei Konchalovsky, Альберт Магноли/ Albert Magnoli

В ролях: Сильвестр Сталлоне, Курт Рассел, Тери Хэтчер, Джек Пэланс, Брайон Джеймс, Джеймс Хонг, Марк Алаймо, Филип Тан, Майкл Дж. Поллард, Роберт З’Дар

Описание: Герои фильма — Танго и Кэш. Эти соперничающие друг с другом копы обладают одной общей чертой: каждый думает, что он самый лучший, и каждый имеет бесспорные доказательства этого.


Источник: BDRip
Качество видео: HDRip-AVC
Формат видео: MKV
Видео кодек: AVC
Аудио кодек: AC3, AAC LC
Видео: 1152x480 (2.400:1); 23,976 fps; MPEG4 AVC (x264) High@L3.1;~2006 kbps avg, 0.28 bit/pixel
Аудио 1: 48 kHz, AC3 Dolby Digital, 2/0 (L,R) ch, ~192 kbps [Гаврилов]
Аудио 2: AC3, 384 kBit/s, 48 kHz 5.1 DD [Горчаков]
Аудио 3: AAC LC, 245 kbps, 48Hz 6ch [Мосфильм]
Аудио 4: AC3, 256 kBit/s, 48 kHz 2.0 DD [Дубляж Варус-Видео]
Формат субтитров: softsub (UTF-8; SRT)
E:\INTERNET\Танго и Кэш.1989.BDRip-AVC. 2x[AVO] + 2x[DUB].mkv
General
Unique ID : 235657169743729981732716117337578591023 (0xB149EB83EF0B62D79E31F35071EED32F)
Complete name : E:\INTERNET\Танго и Кэш.1989.BDRip-AVC. 2x[AVO] + 2x[DUB].mkv
Format : Matroska
Format version : Version 2
File size : 2.24 GiB
Duration : 1h 44mn
Overall bit rate : 3 077 Kbps
Movie name : Tango and Cash (1989) BDRip AVC.AAC - tRuAVC
Encoded by : [tRuAVC]vladimiryakushin
Encoded date : UTC 2013-05-28 20:27:59
Writing application : mkvmerge v4.2.0 ('No Talking') сборка от Jul 28 2010 18:38:23
Writing library : libebml v1.0.0 + libmatroska v1.0.0
Cover : Cover Picture
TITLE : Tango and Cash (1989)
DATE_RELEASED : 08th April 2009
COMMENT : BDRip (Blu-Ray)
Video #1
ID : 1
Format : AVC
Format/Info : Advanced Video Codec
Format profile : High@L3.1
Format settings, CABAC : Yes
Format settings, ReFrames : 8 frames
Muxing mode : Header stripping
Codec ID : V_MPEG4/ISO/AVC
Duration : 1h 44mn
Width : 1 152 pixels
Height : 480 pixels
Display aspect ratio : 2.40:1
Frame rate mode : Constant
Frame rate : 23.976 fps
Color space : YUV
Chroma subsampling : 4:2:0
Bit depth : 8 bits
Scan type : Progressive
Title : x264.AVC 1152x480
Writing library : x264 core 67 r1134kMod b8808bf
Encoding settings : cabac=1 / ref=8 / deblock=1:-2:-1 / analyse=0x3:0x113 / me=umh / subme=9 / psy_rd=0.9:0.1 / mixed_ref=1 / me_range=24 / chroma_me=1 / trellis=2 / 8x8dct=1 / cqm=0 / deadzone=21,11 / chroma_qp_offset=-6 / threads=3 / thread_queue=3 / nr=0 / decimate=1 / mbaff=0 / bframes=7 / b_pyramid=1 / b_adapt=2 / b_bias=0 / direct=1 / wpredb=1 / keyint=250 / keyint_min=25 / scenecut=40 / rc=crf / crf=23.1000 / qcomp=0.60 / qpmin=10 / qpmax=51 / qpstep=4 / ip_ratio=1.40 / pb_ratio=1.30 / aq=1:1.20 / zones=142667,149278,q=40
Language : English
Default : Yes
Forced : No
Audio #2
ID : 2
Format : AC-3
Format/Info : Audio Coding 3
Mode extension : CM (complete main)
Format settings, Endianness : Big
Muxing mode : Header stripping
Codec ID : A_AC3
Duration : 1h 44mn
Bit rate mode : Constant
Bit rate : 192 Kbps
Channel(s) : 2 channels
Channel positions : Front: L R
Sampling rate : 48.0 KHz
Bit depth : 16 bits
Compression mode : Lossy
Stream size : 143 MiB (6%)
Title : Гаврилов
Language : Russian
Default : Yes
Forced : No
Audio #3
ID : 3
Format : AC-3
Format/Info : Audio Coding 3
Mode extension : CM (complete main)
Format settings, Endianness : Big
Muxing mode : Header stripping
Codec ID : A_AC3
Duration : 1h 44mn
Bit rate mode : Constant
Bit rate : 384 Kbps
Channel(s) : 6 channels
Channel positions : Front: L C R, Side: L R, LFE
Sampling rate : 48.0 KHz
Bit depth : 16 bits
Compression mode : Lossy
Stream size : 286 MiB (12%)
Title : Горчаков
Language : Russian
Default : No
Forced : No
Audio #4
ID : 4
Format : AAC
Format/Info : Advanced Audio Codec
Format profile : LC
Codec ID : A_AAC
Duration : 1h 44mn
Channel(s) : 6 channels
Channel positions : Front: L C R, Side: L R, LFE
Sampling rate : 48.0 KHz
Compression mode : Lossy
Title : Rusian - Dubbing
Language : Russian
Default : No
Forced : No
Audio #5
ID : 5
Format : AC-3
Format/Info : Audio Coding 3
Mode extension : CM (complete main)
Format settings, Endianness : Big
Muxing mode : Header stripping
Codec ID : A_AC3
Duration : 1h 44mn
Bit rate mode : Constant
Bit rate : 256 Kbps
Channel(s) : 2 channels
Channel positions : Front: L R
Sampling rate : 48.0 KHz
Bit depth : 16 bits
Compression mode : Lossy
Stream size : 190 MiB (8%)
Title : Дубляж Варус
Language : Russian
Default : No
Forced : No
Text #6
ID : 6
Format : UTF-8
Codec ID : S_TEXT/UTF8
Codec ID/Info : UTF-8 Plain Text
Title : English UTF-8 SRT
Language : English
Default : No
Forced : No
Text #7
ID : 7
Format : UTF-8
Codec ID : S_TEXT/UTF8
Codec ID/Info : UTF-8 Plain Text
Title : French UTF-8 SRT
Language : French
Default : No
Forced : No
Text #8
ID : 8
Format : UTF-8
Codec ID : S_TEXT/UTF8
Codec ID/Info : UTF-8 Plain Text
Title : German UTF-8 SRT
Language : German
Default : No
Forced : No
Text #9
ID : 9
Format : UTF-8
Codec ID : S_TEXT/UTF8
Codec ID/Info : UTF-8 Plain Text
Title : Italian UTF-8 SRT
Language : Italian
Default : No
Forced : No
Text #10
ID : 10
Format : UTF-8
Codec ID : S_TEXT/UTF8
Codec ID/Info : UTF-8 Plain Text
Title : Russian UTF-8 SRT
Language : Russian
Default : No
Forced : No
Text #11
ID : 11
Format : UTF-8
Codec ID : S_TEXT/UTF8
Codec ID/Info : UTF-8 Plain Text
Title : Spanish UTF-8 SRT
Language : Spanish
Default : No
Forced : No



Скачать Танго.и.Кэш.Tango.&.Cash.(Андрей.Кончаловский.Andrei.Konchalovsky.Альберт.Магноли.Albert.Magnoli).[1989.Боевик.Комедия.Криминал.Триллер.HDRip-AVC].2x[AVO].+.2x[Dub].torrent без регистрации
Золото ЗОЛОТАЯ РАЗДАЧА! СКАЧАННОЕ НЕ ЗАСЧИТЫВАЕТСЯ! Золото
Дата: Зарегистрирован   [ Тип: внутренний ] Как тут cкачать?
MAGNET ссылка
MAGNET ссылка


Скачать .torrent

12 KB

Статус: проверено DHT
Скачан: торрент - 122 раз, раздача полностью - 11 раз
Размер: 2,24 GB
Оценка:  5 (Голосов: 1)
Поблагодарили: 1
Поделиться ссылкой на эту раздачу с друзьями:
В контактеFacebookОдноклассникиTwitterLivejournalМой МирLiveinternet
 

 
Показать сообщения:    


Вы не можете начинать темы
Вы не можете отвечать на сообщения
Вы не можете редактировать свои сообщения
Вы не можете удалять свои сообщения
Вы не можете голосовать в опросах
Вы не можете прикреплять файлы к сообщениям
Вы можете скачивать файлы