Loading...
Error

Скачать Бигглз: Приключения во времени / Biggles: Adventures in Time (Джон Хью) [1986, приключения, фантастика, военный, DVDRip] [MVO] + [AVO] торрент без регистрации

 
Статистика раздачи
Размер:  1,48 GB   |    Скачан:  114 раз
Сидов:  1  [  0 KB/s  ]  
 
Автор Сообщение

leon030982

[] 

Бигглз: Приключения во времени / Biggles: Adventures in Time



Год выхода: 1986
Жанр: Приключения, фантастика, военный
Выпущено: США, Великобритания / United International Pictures
Продолжительность: 01:32:44
Перевод 1: Профессиональный (многоголосый закадровый)
Перевод 2: Авторский (одноголосый закадровый) [Андрей Гаврилов]

Режиссер: Джон Хью / John Hough

В ролях: Нил Диксон, Алекс Хайд-Вайт, Фиона Хатчинсон, Питер Кашинг, Уильям Хуткинс, Алан Полонски, Francesca Gonshaw, Michael Siberry, Джеймс Саксон, Дэниэл Флинн

О фильме: Приключения преуспевающего менеджера из Нью-Йорка, оказавшегося "временным близнецом" прославленного аса Первой мировой войны, и постоянно в самые неожиданные моменты перемещающегося в 1917 год - на Западный фронт и возвращает в настоящее? Вам ничего не остается, как возложить на себя сверхзадачу помочь английским войскам уничтожить секретное оружие немцев в 1917-м и спасать себя и Бигглза от полиции в настоящем


СЭМПЛ

Качество: DVDRip-AVC
Формат: AVC
Видео кодек: XviD
Аудио кодек:AC-3
Видео: x264, 708x480@[708x540_629x480](Анаморф), 1.311:1, 23.976 fps, 1 432 kbit/s, Progressive, 0.176 Bits/(Pixel*Frame)
Аудио#1:Rus: AC-3, 48 KHz, 6 ch, 448 Kbps, Русский [Профессиональный (многоголосый закадровый)]
Аудио#2:Rus: AC-3, 48 KHz, 2 ch, 192 Kbps, Русский [Андрей Гаврилов]
Аудио#3:Rus: AC-3, 48 KHz, 2 ch, 192 Kbps, Английский [Original]
E:\INTERNET\Biggles - Adventures in Time_1986_DVDRip-AVC\Biggles - Adventures in Time_1986_DVDRip-AVC_.mkv
General
Unique ID : 248358635312105084533122850271601414962 (0xBAD8221DF2BD17EC8E5DBFDEE810D332)
Complete name : E:\INTERNET\Biggles - Adventures in Time_1986_DVDRip-AVC\Biggles - Adventures in Time_1986_DVDRip-AVC_.mkv
Format : Matroska
Format version : Version 4 / Version 2
File size : 1.48 GiB
Duration : 1h 32mn
Overall bit rate : 2 293 Kbps
Encoded date : UTC 2013-05-29 03:15:52
Writing application : mkvmerge v6.1.0 ('Old Devil') built on Mar 2 2013 14:32:37
Writing library : libebml v1.3.0 + libmatroska v1.4.0
Video #1
ID : 1
Format : AVC
Format/Info : Advanced Video Codec
Format profile : High@L4.1
Format settings, CABAC : Yes
Format settings, ReFrames : 15 frames
Codec ID : V_MPEG4/ISO/AVC
Duration : 1h 32mn
Bit rate : 1 416 Kbps
Width : 708 pixels
Height : 480 pixels
Display aspect ratio : 4:3
Frame rate mode : Constant
Frame rate : 23.976 fps
Color space : YUV
Chroma subsampling : 4:2:0
Bit depth : 8 bits
Scan type : Progressive
Bits/(Pixel*Frame) : 0.174
Stream size : 938 MiB (62%)
Title : Biggles: Adventures in Time_1986_DVDRip-AVC_ripped_by_rjhlb777
Writing library : x264 core 130 r2273 b3065e6
Encoding settings : cabac=1 / ref=15 / deblock=1:-3:-3 / analyse=0x3:0x133 / me=umh / subme=11 / psy=0 / mixed_ref=0 / me_range=32 / chroma_me=1 / trellis=2 / 8x8dct=1 / cqm=0 / deadzone=6,6 / fast_pskip=0 / chroma_qp_offset=0 / threads=6 / lookahead_threads=1 / sliced_threads=0 / nr=0 / decimate=0 / interlaced=0 / bluray_compat=0 / constrained_intra=0 / bframes=13 / b_pyramid=2 / b_adapt=2 / b_bias=0 / direct=3 / weightb=1 / open_gop=0 / weightp=2 / keyint=240 / keyint_min=23 / scenecut=40 / intra_refresh=0 / rc_lookahead=60 / rc=crf / mbtree=0 / crf=20.0 / qcomp=0.80 / qpmin=0 / qpmax=69 / qpstep=4 / vbv_maxrate=62500 / vbv_bufsize=78125 / crf_max=0.0 / nal_hrd=none / ip_ratio=1.10 / pb_ratio=1.10 / aq=1:0.50
Language : English
Default : Yes
Forced : No
Audio #2
ID : 2
Format : AC-3
Format/Info : Audio Coding 3
Mode extension : CM (complete main)
Format settings, Endianness : Big
Codec ID : A_AC3
Duration : 1h 32mn
Bit rate mode : Constant
Bit rate : 448 Kbps
Channel(s) : 6 channels
Channel positions : Front: L C R, Side: L R, LFE
Sampling rate : 48.0 KHz
Bit depth : 16 bits
Compression mode : Lossy
Stream size : 297 MiB (20%)
Title : MVO
Language : Russian
Default : Yes
Forced : No
Audio #3
ID : 3
Format : AC-3
Format/Info : Audio Coding 3
Mode extension : CM (complete main)
Format settings, Endianness : Big
Codec ID : A_AC3
Duration : 1h 32mn
Bit rate mode : Constant
Bit rate : 192 Kbps
Channel(s) : 2 channels
Channel positions : Front: L R
Sampling rate : 48.0 KHz
Bit depth : 16 bits
Compression mode : Lossy
Stream size : 127 MiB (8%)
Title : AVO_Andrei Gavrilov
Language : Russian
Default : No
Forced : No
Audio #4
ID : 4
Format : AC-3
Format/Info : Audio Coding 3
Mode extension : CM (complete main)
Format settings, Endianness : Big
Codec ID : A_AC3
Duration : 1h 32mn
Bit rate mode : Constant
Bit rate : 192 Kbps
Channel(s) : 2 channels
Channel positions : Front: L R
Sampling rate : 48.0 KHz
Bit depth : 16 bits
Compression mode : Lossy
Stream size : 127 MiB (8%)
Title : Original
Language : English
Default : No
Forced : No



Скачать Бигглз.Приключения.во.времени.Biggles.Adventures.in.Time.(Джон.Хью).[1986.приключения.фантастика.военный.DVDRip].[MVO].+.[AVO].torrent без регистрации
Золото ЗОЛОТАЯ РАЗДАЧА! СКАЧАННОЕ НЕ ЗАСЧИТЫВАЕТСЯ! Золото
Дата: Зарегистрирован   [ Тип: внутренний ] Как тут cкачать?
MAGNET ссылка
MAGNET ссылка


Скачать .torrent

15 KB

Статус: проверено DHT
Скачан: торрент - 114 раз, раздача полностью - 26 раз
Размер: 1,48 GB
Оценка:  5 (Голосов: 1)
Поблагодарили: 1
Поделиться ссылкой на эту раздачу с друзьями:
В контактеFacebookОдноклассникиTwitterLivejournalМой МирLiveinternet
 

 
Показать сообщения:    


Вы не можете начинать темы
Вы не можете отвечать на сообщения
Вы не можете редактировать свои сообщения
Вы не можете удалять свои сообщения
Вы не можете голосовать в опросах
Вы не можете прикреплять файлы к сообщениям
Вы можете скачивать файлы